Важное объявление!
У Нас Все раздачи мультитрекерные, при нуле пиров в релизах, можете смело вставать на закачку!
Статистика раздачи
Размер:     |    Зарегистрирован:     |    Скачан:     |   
Нет
 
     
 
 
Автор Сообщение

HUNTER

Стаж:
5 лет
Сообщений:
67968

Репутация: 101

[+] [-]
Вне форума [Профиль] [ЛС]

-

Год выпуска: 2006
Страна: США
Сайт производителя: отсутствует
Тематика: Танцы
Тип материала: обучающее видео-Продолжительность: 01:27:00
Автор: не указан
В ролях: Славик Крикливый, Карина Смирнофф.-Язык: Русский - Профессиональный (одноголосый)
Субтитры: есть - английские-Описание: Международный стиль латиноамериканских танцев.
Фигуры уровня сложности Начинающий, Средний, Продвинутый.
Фигуры международного стиля латиноамериканских танцев танцуют и демонстрируют супер звезды латины Славик и Карина, комментирует Корки Баллас, перевод Александр Иванов.
-Качество: DVDRip
Формат: AVI
Видео кодек: XviD
Аудио кодек: MP3
Видео: XviD; 512x384 (4:3); 29,97 fps; ~ 1100-1200 Кбит/с
Аудио: MPEG Layer 3 (MP3), stereo, 44kHz; VBR 128.00 kbps-

Содержание

1. Вступление
2. История Самбы
3. Позиция в паре и постановка корпуса
Бронзовый уровень
4. Разминка шагами Самбы
5. Основное движение
6. Обратное основное движение
7. Поступательное основное движение
8. Виски влево и вправо
9. Самба ход в променаде
10. Самба ход в сторону
11. Самба ход на месте
12. Ритм баунс
13. Движения вольта
14. Бота фого в продвижении
15. Крисс кросс бота фого и вольта
16. Вариация
Серебряный уровень
17. Бота фого в продвижении назад
18. Бота фого в променад и контр променад
19. Вольта в продв ижении в теневой позиции
20. Левый поворот
21. Корта джака
22. Закрытые роки
23. Открытые роки
24. Роки назад
25. Коса
26. Раскручивание из руки
27. Аргентинский крест
28. Мэйпоул
29. Вольта по кругу в теневой позиции
30. Методы смены ступней
31. Вариация
32. Разминка для Самбы
Золотой уровень
33. Контра бота фого
34. Карусель вправо и влево
35. Правый рол
36. Левый рол
37. Променадный бег с ритмом 1,2,3
38. Поворот на трёх шагах
39. Крузадо локи
40. Самба лок
41. Разминка для самбы
42. Вариация

MediaInfo

Код: copyText_writeLink('this.parentNode.parentNode.nextSibling.nextSibling'); General
Complete name : E:\Обучение\Samba\1. Вступление.avi
Format : AVI
Format/Info : Audio Video Interleave
File size : 9.19 MiB
Duration : 57s 424ms
Overall bit rate : 1 342 Kbps
Writing application : MEncoder dev-CVS-051014-22:10-3.4.4
Writing library : MPlayer
Video
ID : 0
Format : MPEG-4 Visual
Format profile : Simple@L3
Format settings, BVOP : No
Format settings, QPel : No
Format settings, GMC : No warppoints
Format settings, Matrix : Default (H.263)
Codec ID : XVID
Codec ID/Hint : XviD
Duration : 57s 424ms
Bit rate : 1 201 Kbps
Width : 512 pixels
Height : 384 pixels
Display aspect ratio : 4:3
Frame rate : 29.970 fps
Color space : YUV
Chroma subsampling : 4:2:0
Bit depth : 8 bits
Scan type : Progressive
Compression mode : Lossy
Bits/(Pixel*Frame) : 0.204
Stream size : 8.22 MiB (89%)
Writing library : XviD 1.1.0 Beta2 (UTC 2005-04-04)
Audio
ID : 1
Format : MPEG Audio
Format version : Version 1
Format profile : Layer 3
Mode : Dual mono
Codec ID : 55
Codec ID/Hint : MP3
Duration : 57s 313ms
Bit rate mode : Constant
Bit rate : 128 Kbps
Channel(s) : 2 channels
Sampling rate : 44.1 KHz
Compression mode : Lossy
Stream size : 896 KiB (10%)
Alignment : Aligned on interleaves
Interleave, duration : 26 ms (0.78 video frame)
Interleave, preload duration : 809 ms
- -

_________________
Показать сообщения:    

Текущее время: Сегодня 12:52

Часовой пояс: GMT



Вы не можете начинать темы
Вы не можете отвечать на сообщения
Вы не можете редактировать свои сообщения
Вы не можете удалять свои сообщения
Вы не можете голосовать в опросах
Вы не можете прикреплять файлы к сообщениям
Вы не можете скачивать файлы