Важное объявление!
У Нас Все раздачи мультитрекерные, при нуле пиров в релизах, можете смело вставать на закачку!
Статистика раздачи
Размер:     |    Зарегистрирован:     |    Скачан:     |   
Нет
 
     
 
 
Автор Сообщение

HUNTER

Стаж:
5 лет
Сообщений:
67992

Репутация: 101

[+] [-]
Вне форума [Профиль] [ЛС]

Танцуем эмоционально. Джайв. / Dancing Basics with Passion.-

Год выпуска: 2006
Страна: США
Сайт производителя: отсутствуeт
Тематика: Танцы
Тип материала: обучающее видео-Продолжительность:
Автор: Славик Крикливый и Карина Смирнофф-Язык: Русский - Профессиональный (одноголосый)
Субтитры: отсутствуют-Описание: Международный стиль латиноамериканских танцев.
Фигуры уровня сложности Начинающий, Средний, Продвинутый.
Фигуры международного стиля латиноамериканских танцев танцуют и демонстрируют супер звезды латины Славик и Карина, комментирует Корки Баллас, перевод Александр Иванов.
-Качество: DVDRip
Формат: AVI
Видео кодек: XviD
Аудио кодек: MP3
Видео: XviD; 512x384 (4:3); 29,97 fps; ~ 1100-1300 Кбит/с
Аудио: MPEG Layer 3 (MP3), stereo, 44kHz; VBR 128.00 kbps-

Содержание

1. Введение
2. История Джайва
3. Позиции корпуса и постанвка в паре
4. Джайв шассе
5. Другие позиции
Бронзовый уровень
6. Основное движение на месте
7. Фоловей рок
8. Фоловей отталкивание
9. Перекрученный фоловей отталкивание
10. Звено
11. Перемена мест справа налево
12. Перемена мест слева направо
13. Смена рук за спиной
14. Удар бедром
15. Упражнения джайва
16. Вариация
17. Объяснение вариации
18. Связка фигур шассе
Серебряный уровень
19. Американский спин
20. Ход
21. Стоп энд гоу
22. Муч
23. Хлыст
24. Хлыст отталкивание
25. Левый хлыст
26. Ветряная мельница
27. Испанские руки
28. Раскручивание от руки
29. Простой спин
30. Майами спешил
31. Вариация
Золотой уровень
32. Закрученный хлыст
33. Спин плечами
34. Частинг
35. Свивля с носка на каблук
36. Цыплячий ход
37. Катапульта
38. Крадущиеся шаги и флики в брейк
39. Упражнения для разминки кики
40. Вариация

MediaInfo

Код: copyText_writeLink('this.parentNode.parentNode.nextSibling.nextSibling'); General
Complete name : E:\Обучение\Jive\4. Джайв шассе.avi
Format : AVI
Format/Info : Audio Video Interleave
File size : 28.6 MiB
Duration : 2mn 59s
Overall bit rate : 1 340 Kbps
Writing application : MEncoder dev-CVS-051014-22:10-3.4.4
Writing library : MPlayer
Video
ID : 0
Format : MPEG-4 Visual
Format profile : Simple@L3
Format settings, BVOP : No
Format settings, QPel : No
Format settings, GMC : No warppoints
Format settings, Matrix : Default (H.263)
Codec ID : XVID
Codec ID/Hint : XviD
Duration : 2mn 59s
Bit rate : 1 198 Kbps
Width : 512 pixels
Height : 384 pixels
Display aspect ratio : 4:3
Frame rate : 29.970 fps
Color space : YUV
Chroma subsampling : 4:2:0
Bit depth : 8 bits
Scan type : Progressive
Compression mode : Lossy
Bits/(Pixel*Frame) : 0.203
Stream size : 25.6 MiB (89%)
Writing library : XviD 1.1.0 Beta2 (UTC 2005-04-04)
Audio
ID : 1
Format : MPEG Audio
Format version : Version 1
Format profile : Layer 3
Mode : Dual mono
Codec ID : 55
Codec ID/Hint : MP3
Duration : 2mn 59s
Bit rate mode : Constant
Bit rate : 128 Kbps
Channel(s) : 2 channels
Sampling rate : 44.1 KHz
Compression mode : Lossy
Stream size : 2.73 MiB (10%)
Alignment : Aligned on interleaves
Interleave, duration : 26 ms (0.78 video frame)
Interleave, preload duration : 809 ms
- -

_________________
Показать сообщения:    

Текущее время: Сегодня 18:51

Часовой пояс: GMT



Вы не можете начинать темы
Вы не можете отвечать на сообщения
Вы не можете редактировать свои сообщения
Вы не можете удалять свои сообщения
Вы не можете голосовать в опросах
Вы не можете прикреплять файлы к сообщениям
Вы не можете скачивать файлы