Важное объявление!
У Нас Все раздачи мультитрекерные, при нуле пиров в релизах, можете смело вставать на закачку!
 
Автор Сообщение

HUNTER

Стаж:
4 года 7 месяцев
Сообщений:
61521

Репутация: 101

[+] [-]
Вне форума [Профиль] [ЛС]

Танцуем как Майкл Джексон/Dance like Michael Jackson-

Год выпуска: 2000
Страна: Франция
Сайт производителя: www.secret-of-moonwalk.com
Тематика: Танцы
Тип материала: Видеоуроки-Продолжительность: 1:09:03
Автор: не указан-Язык: французский
Субтитры: отсутствуют-Описание: Тридцать один видеоурок поможет Вам освоить известную всем технику танца Майкла Джэксона-Качество: DVDRip
Формат: AVI
Видео кодек: XviD
Аудио кодек: MP3
Видео: 720x576 (1.25:1), 25 fps, XviD build 47 ~736 kbps avg, 0.07 bit/pixel
Аудио: 44.100 kHz, MPEG Layer 3, 2 ch, ~117.55 kbps avg-

Содержание

1. James
2. king cobra
3. littlewalk
4. locking jam
5. mirror pop
6. MoonWalk
7. Reverse Walk
8.roboticpop
9. Shoulder Move
10. Shoulder pop
11. Sidewalk
12. Slidin mass
13. Slipped Walk
14. Slow Motion
15. Spin
16. Spot Walk
17. Strike Heel
18. the Wave
19. video2
20. video3
21. video4
22. video5
23. video6
24. video7
25. video8
26. y
27. 360Airwalk
28. Arc Legs.
29. Clappers
30. Double Archer
31. Jackson Walk.

MediaInfo

Код: copyText_writeLink('this.parentNode.parentNode.nextSibling.nextSibling'); General
Complete name : E:\Закачки\Dance like Michael Jackson - Танцуем как Майкл Джексон\Level 2 Shoulder Move.avi
Format : AVI
Format/Info : Audio Video Interleave
File size : 16.2 MiB
Duration : 2mn 2s
Overall bit rate mode : Variable
Overall bit rate : 1 110 Kbps
Writing application : VirtualDubMod 1.5.10.2 (build 2540/release)
Writing library : VirtualDubMod build 2540/release
Video
ID : 0
Format : MPEG-4 Visual
Format profile : Advanced Simple@L5
Format settings, BVOP : 3
Format settings, QPel : Yes
Format settings, GMC : 3 warppoints
Format settings, Matrix : Default (H.263)
Codec ID : XVID
Codec ID/Hint : XviD
Duration : 2mn 2s
Bit rate : 982 Kbps
Width : 720 pixels
Height : 576 pixels
Display aspect ratio : 5:4
Frame rate : 25.000 fps
Standard : PAL
Color space : YUV
Chroma subsampling : 4:2:0
Bit depth : 8 bits
Scan type : Progressive
Compression mode : Lossy
Bits/(Pixel*Frame) : 0.095
Stream size : 14.3 MiB (88%)
Writing library : XviD 1.2.0.dev47 (UTC 2006-11-01)
Audio
ID : 1
Format : MPEG Audio
Format version : Version 1
Format profile : Layer 3
Codec ID : 55
Codec ID/Hint : MP3
Duration : 2mn 2s
Bit rate mode : Variable
Bit rate : 118 Kbps
Nominal bit rate : 128 Kbps
Channel(s) : 2 channels
Sampling rate : 44.1 KHz
Compression mode : Lossy
Stream size : 1.72 MiB (11%)
Alignment : Split accross interleaves
Interleave, duration : 40 ms (1.00 video frame)
Interleave, preload duration : 500 ms
Writing library : LAME3.97
Encoding settings : -m s -V 4 -q 2 -lowpass 17 --abr 128
- -

_________________
Показать сообщения:    

Текущее время: Сегодня 18:00

Часовой пояс: GMT



Вы не можете начинать темы
Вы не можете отвечать на сообщения
Вы не можете редактировать свои сообщения
Вы не можете удалять свои сообщения
Вы не можете голосовать в опросах
Вы не можете прикреплять файлы к сообщениям
Вы не можете скачивать файлы
Наши партнеры: интернет магазин Ивановского трикотажа textilla.ru