Ивановский Торрент трекер
Яндекс.Погода
 

[Цитировать]
HUNTER

Таннер Холл / Tanner Hall Страна: США
Жанр: драма
Год выпуска: 2009
Продолжительность: 01:31:24
Перевод: Профессиональный (многоголосый закадровый)
Cубтитры: нет
Режиссер: Франческа Грегорини / Francesca Gregorini, Татьяна Фон Фюрстенберг / Tatiana von Furstenberg
В ролях: Руни Мара, Джорджия Кинг, Бри Ларсон, Эми Фергюсон, Том Эверетт Скотт, Эми Седарис, Крис Кэттэн, Шон Пайфром, Райан Шира, Сьюзэн Миснер
Описание: С началом нового учебного года в элитную частную школу «Таннер Холл» приходит новенькая, Виктория. Ее появлению совсем не рада «звезда» школы, Фернанда. А вот ее подруги Кейт и Лукаста не видят в новоприбывшей ничего плохого. По мере того, как развивается сюжет картины, в жизни девочек происходят различные события, тем или иным образом влияющие на их будущее.

Сэмпл: http://sendfile.su/1012095
Тип релиза: HDTV 1080i
Контейнер: TS
Видео: AVC/H.264, PAL, 1920x1080 (16:9), 8900 Кбит/сек, 25.000 fps
Аудио: русский, MP-2, 48000 Hz, 192 Кбит/сек, 2 ch

MediaInfo

Видео
Идентификатор : 224 (0xE0)
Идентификатор меню : 1 (0x1)
Формат : AVC
Формат/Информация : Advanced Video Codec
Профиль формата : High@L4.1
Параметр CABAC формата : Да
Параметр ReFrames формата : 3 кадра
Идентификатор кодека : 27
Продолжительность : 1 ч. 31 м.
Вид битрейта : Постоянный
Битрейт : 8900 Кбит/сек
Ширина : 1920 пикселей
Высота : 1080 пикселей
Соотношение сторон : 16:9
Частота кадров : 25,000 кадров/сек
Стандарт вещания : PAL
Цветовое пространство : YUV
Субдискретизация насыщенности : 4:2:0
Битовая глубина : 8 бит
Тип развёртки : Чересстрочная
Порядок развёртки : Верхнее поле первое
Бит/(Пиксели*Кадры) : 0.172
Размер потока : 5,58 Гбайт (93%)
Основные цвета : BT.709
Характеристики трансфера : BT.709
Коэффициенты матрицы : BT.709
Аудио
Идентификатор : 192 (0xC0)
Идентификатор меню : 1 (0x1)
Формат : MPEG Audio
Версия формата : Version 1
Профиль формата : Layer 2
Идентификатор кодека : 3
Продолжительность : 1 ч. 31 м.
Вид битрейта : Постоянный
Битрейт : 224 Кбит/сек
Каналы : 2 канала
Частота : 44,1 КГц
Метод сжатия : С потерями
Задержка видео : 8 мс.
Размер потока : 146 Мбайт (2%)
Язык : Russian

Скриншот с названием фильма

Скриншоты

Показать сообщения:    

Текущее время: 24-Сен 02:11

Часовой пояс: UTC - 1


Вы не можете начинать темы
Вы не можете отвечать на сообщения
Вы не можете редактировать свои сообщения
Вы не можете удалять свои сообщения
Вы не можете голосовать в опросах
Вы не можете прикреплять файлы к сообщениям
Вы не можете скачивать файлы

!ВНИМАНИЕ!
Сайт не предоставляет электронные версии произведений, а занимается лишь коллекционированием и каталогизацией ссылок, присылаемых и публикуемых на форуме нашими читателями. Если вы являетесь правообладателем какого-либо представленного материала и не желаете, чтобы ссылка на него находилась в нашем каталоге, свяжитесь с нами, и мы незамедлительно удалим ее. Файлы для обмена на трекере предоставлены пользователями сайта, и администрация не несет ответственности за их содержание. Просьба не заливать файлы, защищенные авторскими правами, а также файлы нелегального содержания!