Ивановский Торрент трекер
Яндекс.Погода
 

[Цитировать]
HUNTER

Танец гномов / Танец карликов / Dance of the Dwarfs / Jungle Heat
Страна: США
Студия: Dove / Panach
Жанр: приключения,ужасы
Год выпуска: 1983
Продолжительность: 01:28:57
Перевод: Авторский (одноголосый закадровый) Дольский
Cубтитры: нет
Оригинальная аудиодорожка: английский
Режиссер: Гас Триконис / Gus Trikonis
В ролях: Питер Фонда, Дебора Раффин, Джон Амос, Турко Сервантес
Описание: Доктор-антрополог Эвелин Ховард нанимает пилота вертолета по имени Гарри, чтобы тот отправился вместе с ней в филиппинские джунгли, где она смогла бы проверить информацию об обитании там загадочного племени пигмеев-карликов, у которых на спине имеются отростки типа крыльев. Но по банальной причине пристрастия Гарри к бутылке с алкоголем это путешествие оказывается вовсе не таким увлекательным, как полагалось бы. Они постоянно попадают в рискованные и опасные ситуации. В конце концов, Эвелин и Гарри удается найти затерянное в джунглях таинственное племя, но его обитателями оказываются во все не те, кого ожидала увидеть Эвелин…
Забытый, но очень приятный фильм в стиле картин «Копи царя Соломона» (1985) и «Роман с камнем» (1984). Написавший сценарий Майкл Вайнер на самом деле продюсер («Мельницы Богов», 1988), а сыгравшая главную женскую роль актриса Дебора Раффин-его жена. Дебора снималась в фильмах «Бог сказал мне» (1976), «Страж» (1977), «Дом тайн и загадок Хаммера» (1984), «Жажда смерти-3» (1985), «Сканнеры-2» (1991). Редактировал сценарий опытнейший Ларри Джонсон, приложивший руку к таким фильмам, как «Замороженный» (1995), «Дни грома» (1990), «Страх» (1990), «Воспоминания человека-невидимки» (1992), «Безмолвная схватка» (1994), «Ртутное шоссе» (1997), «Сияющий» (1997). Режиссер Гус Триконис («Во имя мести», 1969; «Зло», 1978) знаменит главным образом тем, что в начале семидесятых годов был первым мужем актрисы Голди Хоун, которая с 1983 году счастливо живет в гражданском браке с Куртом Расселлом.
Доп. информация: За предоставленную русскую дорожку большое спасибо arner.
Релиз:
За синхронизацию огромное спасибо Нордер.
При пересборе двд были использованы программы:
PgcDemux - разделение компонентов диска на файлы
Muxman - мультиплексирование и авторинг DVD
VobBlanker - реавторинг DVD

Скрин завершения проекта

Бонусы: Трейлеры
Сэмпл: http://sendfile.su/1079216
Тип релиза: DVD9 (Custom)
Контейнер: DVD-Video
Видео: PAL 16:9 (720x576) VBR Auto Pan&Scan
Аудио: Russian (Dolby AC3, 192 Кбит/сек, 2 ch)
Аудио 2: Czech(Ceske) (Dolby AC3, 192 Кбит/сек, 2 ch)
Аудио 3: Deutsch (Dolby AC3, 192 Кбит/сек, 2 ch)
Аудио 4: English (Dolby AC3, 192 Кбит/сек, 2 ch)

DVDInfo

Size: 4.46 Gb ( 4 679 154 KBytes ) - DVD-9
Enabled regions: 1, 2, 3, 4, 5, 6, 7, 8
VTS_01 :
Play Length: 01:28:55+00:00:02
Video: PAL 16:9 (720x576) VBR, Auto Pan&Scan
Audio:
Russian (Dolby AC3, 2 ch)
Czech(Ceske) (Dolby AC3, 2 ch)
Deutsch (Dolby AC3, 2 ch)
English (Dolby AC3, 2 ch)
VTS_02 :
Play Length: 00:00:10
Video: PAL 16:9 (720x576) VBR, Auto Pan&Scan
Audio:
Deutsch (Dolby AC3, 2 ch)
VTS_03 :
Play Length: 00:01:31+00:01:46
Video: PAL 4:3 (704x576) VBR
Audio:
Not specified (Dolby AC3, 2 ch)
Menu Video:
PAL 16:9 (720x576) VBR
Auto Pan&Scan
Menu Subtitles:
Not specified
Menu English Language Unit :
Root Menu

MediaInfo

Общее
Полное имя : J:\Dance of the Dwarfs_1983\VIDEO_TS\VTS_01_1.VOB
Формат : MPEG-PS
Размер файла : 1024 Мбайт
Продолжительность : 20 м.
Режим общего битрейта : Переменный
Общий поток : 6869 Кбит/сек
Библиотека кодирования : encoded by TMPGEnc (ver. 2.59.47.155)
Видео
Идентификатор : 224 (0xE0)
Формат : MPEG Video
Версия формата : Version 2
Профиль формата : Main@Main
Параметр BVOP формата : Да
Параметр матрицы формата : По умолчанию
Продолжительность : 20 м.
Вид битрейта : Переменный
Ширина : 720 пикселей
Высота : 576 пикселей
Соотношение сторон : 2,40:1
Частота кадров : 25,000 кадров/сек
Стандарт вещания : PAL
Цветовое пространство : YUV
Субдискретизация насыщенности : 4:2:0
Битовая глубина : 8 бит
Тип развёртки : Чересстрочная
Порядок развёртки : Верхнее поле первое
Метод сжатия : С потерями
Библиотека кодирования : TMPGEnc / 2.59.47.155 2.59.47.155
Основные цвета : BT.601 PAL
Характеристики трансфера : BT.470 System B, BT.470 System G
Коэффициенты матрицы : FCC 73.682
Аудио #1
Идентификатор : 189 (0xBD)-128 (0x80)
Формат : AC-3
Формат/Информация : Audio Coding 3
Расширение режима : CM (complete main)
Параметр Endianness формата : Big
Режим смешивания : DVD-Video
Продолжительность : 20 м.
Вид битрейта : Постоянный
Битрейт : 192 Кбит/сек
Каналы : 2 канала
Расположение каналов : Front: L R
Частота : 48,0 КГц
Битовая глубина : 16 бит
Метод сжатия : С потерями
Размер потока : 28,6 Мбайт (3%)
Аудио #2
Идентификатор : 189 (0xBD)-129 (0x81)
Формат : AC-3
Формат/Информация : Audio Coding 3
Расширение режима : CM (complete main)
Параметр Endianness формата : Big
Режим смешивания : DVD-Video
Продолжительность : 20 м.
Вид битрейта : Постоянный
Битрейт : 192 Кбит/сек
Каналы : 2 канала
Расположение каналов : Front: L R
Частота : 48,0 КГц
Битовая глубина : 16 бит
Метод сжатия : С потерями
Размер потока : 28,6 Мбайт (3%)
Аудио #3
Идентификатор : 189 (0xBD)-130 (0x82)
Формат : AC-3
Формат/Информация : Audio Coding 3
Расширение режима : CM (complete main)
Параметр Endianness формата : Big
Режим смешивания : DVD-Video
Продолжительность : 20 м.
Вид битрейта : Постоянный
Битрейт : 192 Кбит/сек
Каналы : 2 канала
Расположение каналов : Front: L R
Частота : 48,0 КГц
Битовая глубина : 16 бит
Метод сжатия : С потерями
Размер потока : 28,6 Мбайт (3%)
Аудио #4
Идентификатор : 189 (0xBD)-131 (0x83)
Формат : AC-3
Формат/Информация : Audio Coding 3
Расширение режима : CM (complete main)
Параметр Endianness формата : Big
Режим смешивания : DVD-Video
Продолжительность : 20 м.
Вид битрейта : Постоянный
Битрейт : 192 Кбит/сек
Каналы : 2 канала
Расположение каналов : Front: L R
Частота : 48,0 КГц
Битовая глубина : 16 бит
Метод сжатия : С потерями
Размер потока : 28,6 Мбайт (3%)
Аудио #5
Идентификатор : 192 (0xC0)
Формат : MPEG Audio
Метод сжатия : С потерями

Скриншоты меню

0 человек читают эту тему: 0 пользователей, 0 скрытых пользователей, 0 гостей

Показать сообщения:    

Текущее время: 24-Авг 04:05

Часовой пояс: UTC - 1


Вы не можете начинать темы
Вы не можете отвечать на сообщения
Вы не можете редактировать свои сообщения
Вы не можете удалять свои сообщения
Вы не можете голосовать в опросах
Вы не можете прикреплять файлы к сообщениям
Вы не можете скачивать файлы

!ВНИМАНИЕ!
Сайт не предоставляет электронные версии произведений, а занимается лишь коллекционированием и каталогизацией ссылок, присылаемых и публикуемых на форуме нашими читателями. Если вы являетесь правообладателем какого-либо представленного материала и не желаете, чтобы ссылка на него находилась в нашем каталоге, свяжитесь с нами, и мы незамедлительно удалим ее. Файлы для обмена на трекере предоставлены пользователями сайта, и администрация не несет ответственности за их содержание. Просьба не заливать файлы, защищенные авторскими правами, а также файлы нелегального содержания!