Важное объявление!
У Нас Все раздачи мультитрекерные, при нуле пиров в релизах, можете смело вставать на закачку!
 
Автор Сообщение

HUNTER

Стаж:
4 года 5 месяцев
Сообщений:
60866

Репутация: 101

[+] [-]
Вне форума [Профиль] [ЛС]

Так держать... Ковбой / Carry on Cowboy
Страна: Великобритания
Жанр: комедия, вестерн
Год выпуска: 1966
Продолжительность: 01:34:27
Перевод: Одноголосый закадровый - renege79
Cубтитры: русские, английские
Оригинальная аудиодорожка: английский
Режиссер: Джералд Томас / Gerald Thomas
В ролях: Сидни Джеймс, Кеннет Уильямс, Джим Дэйл, Чарльз Хоутри, Джоан Симс, Анджела Дуглас, Бернард Бресслоу, Питер Баттерворф, Перси Херберт, Джон Пертуи
Описание: Стодж Сити находится во власти Рампо Кида и его банды. В это время происходит ужасная путаница: санитарного инженера Шерифа Нотта принимают за шерифа закона! Будучи добросовестным человеком, Шериф пытается помочь городу избавиться от Рампо Кида. Шерифу помогают два обстоятельства - жаждущая мести Энни Оукли и его диплом санитарного инженера...
Доп. информация:


За перевод спасибо bakin
За озвучку спасибо renege79
Сэмпл: http://sendfile.su/1033894
Тип релиза: BDRip 720p (DON)
Контейнер: MKV
Видео: AVC, 1280x694 (1,85:1), L4.1, 24,000fps, 10250kbps
Аудио 1: Russian: AC3, 48000Hz, 2ch, 192kbps
Аудио 2: English: FLAC, 48000Hz, 2ch, 16bit, 244kbps
Аудио 3: English: AC3, 48000Hz, 2ch, 192kbps - Commentary with Robert Ross (Carry On expert) & actress Angela Douglas (Annie Oakley)
Формат субтитров: softsub (SRT)

MediaInfo

Общее
Уникальный идентификатор : 194022055792835072119291120019367529666 (0x91F749E90C9B06CC9BD6B3188CE40CC2)
Полное имя : T:\Carry on Cowboy (720p).mkv
Формат : Matroska
Версия формата : Version 4 / Version 2
Размер файла : 7,18 Гбайт
Продолжительность : 1 ч. 34 м.
Режим общего битрейта : Переменный
Общий поток : 10,9 Мбит/сек
Дата кодирования : UTC 2014-10-11 10:58:33
Программа кодирования : mkvmerge v6.9.1 ('Blue Panther') 64bit built on Apr 18 2014 18:23:38
Библиотека кодирования : libebml v1.3.0 + libmatroska v1.4.1
Видео
Идентификатор : 1
Формат : AVC
Формат/Информация : Advanced Video Codec
Профиль формата : High@L4.1
Параметр CABAC формата : Да
Параметр ReFrames формата : 9 кадров
Идентификатор кодека : V_MPEG4/ISO/AVC
Продолжительность : 1 ч. 34 м.
Номинальный битрейт : 10,3 Мбит/сек
Ширина : 1280 пикселей
Высота : 694 пикселя
Соотношение сторон : 1,85:1
Режим частоты кадров : Постоянный
Частота кадров : 24,000 кадра/сек
Цветовое пространство : YUV
Субдискретизация насыщенности : 4:2:0
Битовая глубина : 8 бит
Тип развёртки : Прогрессивная
Бит/(Пиксели*Кадры) : 0.481
Библиотека кодирования : x264 core 142 r2409+42 04be48a tMod [8-bit@all X86_64]
Настройки программы : cabac=1 / ref=9 / deblock=1:-3:-3 / analyse=0x3:0x113 / me=umh / subme=11 / psy=1 / fade_compensate=0.00 / psy_rd=1.04:0.00 / mixed_ref=1 / me_range=32 / chroma_me=1 / trellis=2 / 8x8dct=1 / cqm=0 / deadzone=21,11 / fast_pskip=0 / chroma_qp_offset=-2 / threads=6 / lookahead_threads=1 / sliced_threads=0 / nr=0 / decimate=0 / interlaced=0 / bluray_compat=0 / constrained_intra=0 / fgo=0 / bframes=8 / b_pyramid=2 / b_adapt=2 / b_bias=0 / direct=3 / weightb=1 / open_gop=0 / weightp=2 / keyint=250 / keyint_min=24 / scenecut=40 / intra_refresh=0 / rc_lookahead=50 / rc=2pass / mbtree=0 / bitrate=10250 / ratetol=1.0 / qcomp=0.65 / qpmin=0:0:0 / qpmax=69:69:69 / qpstep=4 / cplxblur=20.0 / qblur=0.5 / vbv_maxrate=50000 / vbv_bufsize=62500 / nal_hrd=none / filler=0 / ip_ratio=1.40 / pb_ratio=1.15 / aq=1:0.60 / aq-sensitivity=10.00 / aq-factor=1.00:1.00:1.00 / aq2=0 / aq3=0
Язык : English
Default : Да
Forced : Нет
Аудио #1
Идентификатор : 2
Формат : AC-3
Формат/Информация : Audio Coding 3
Расширение режима : CM (complete main)
Параметр Endianness формата : Big
Идентификатор кодека : A_AC3
Продолжительность : 1 ч. 34 м.
Вид битрейта : Постоянный
Битрейт : 192 Кбит/сек
Каналы : 2 канала
Расположение каналов : Front: L R
Частота : 48,0 КГц
Битовая глубина : 16 бит
Метод сжатия : С потерями
Размер потока : 130 Мбайт (2%)
Заголовок : renege79
Язык : Russian
Default : Да
Forced : Нет
Аудио #2
Идентификатор : 3
Формат : FLAC
Формат/Информация : Free Lossless Audio Codec
Идентификатор кодека : A_FLAC
Продолжительность : 1 ч. 34 м.
Вид битрейта : Переменный
Каналы : 2 канала
Частота : 48,0 КГц
Битовая глубина : 16 бит
Библиотека кодирования : libFLAC 1.2.1 (UTC 2007-09-17)
Язык : English
Default : Нет
Forced : Нет
Аудио #3
Идентификатор : 4
Формат : AC-3
Формат/Информация : Audio Coding 3
Расширение режима : CM (complete main)
Параметр Endianness формата : Big
Идентификатор кодека : A_AC3
Продолжительность : 1 ч. 34 м.
Вид битрейта : Постоянный
Битрейт : 192 Кбит/сек
Каналы : 2 канала
Расположение каналов : Front: L R
Частота : 48,0 КГц
Битовая глубина : 16 бит
Метод сжатия : С потерями
Размер потока : 130 Мбайт (2%)
Заголовок : Commentary with Robert Ross (Carry On expert) & actress Angela Douglas (Annie Oakley)
Язык : English
Default : Нет
Forced : Нет
Текст #1
Идентификатор : 5
Формат : UTF-8
Идентификатор кодека : S_TEXT/UTF8
Идентификатор кодека/Информация : UTF-8 Plain Text
Заголовок : Николай Бакин
Язык : Russian
Default : Нет
Forced : Нет
Текст #2
Идентификатор : 6
Формат : UTF-8
Идентификатор кодека : S_TEXT/UTF8
Идентификатор кодека/Информация : UTF-8 Plain Text
Язык : English
Default : Нет
Forced : Нет
Меню
00:00:00.000 : en: Chapter 01
00:08:35.458 : en: Chapter 02
00:18:04.083 : en: Chapter 03
00:27:19.333 : en: Chapter 04
00:38:18.083 : en: Chapter 05
00:44:32.875 : en: Chapter 06
00:53:36.208 : en: Chapter 07
01:03:22.125 : en: Chapter 08
01:12:05.125 : en: Chapter 09
01:21:30.292 : en: Chapter 10

Скриншоты


_________________
Показать сообщения:    

Текущее время: Сегодня 16:16

Часовой пояс: GMT



Вы не можете начинать темы
Вы не можете отвечать на сообщения
Вы не можете редактировать свои сообщения
Вы не можете удалять свои сообщения
Вы не можете голосовать в опросах
Вы не можете прикреплять файлы к сообщениям
Вы не можете скачивать файлы
Наши партнеры: интернет магазин Ивановского трикотажа textilla.ru