Важное объявление!
У Нас Все раздачи мультитрекерные, при нуле пиров в релизах, можете смело вставать на закачку!
 
Автор Сообщение

neon10_10

Стаж:
6 лет 3 месяца
Сообщений:
63

Репутация: 49

[+] [-]
Вне форума [Профиль] [ЛС]

Такие разные близнецы / Jack and Jill-
Страна: США
Жанр: Комедия
Год выпуска: 2011
Продолжительность: 01:30:49-Перевод: Профессиональный (полное дублирование)
Формат субтитров: srt, pgs
Оригинальная аудиодорожка: Английская-Режиссёр: Деннис Дуган / Dennis Dugan-В ролях: Адам Сэндлер, Аль Пачино, Кэти Холмс, Элоди Тунье, Роэн Чанд, Эудженио Дербез, Дэвид Спейд, Ник Свардсон, Тим Медоуз, Аллен Коверт, Джонни Дэп-Описание: В центре сюжета - семейный мужчина по имени Джек, к которому на День Благодарения нагрянула в гости его взбалмошная сестра-близняшка Джилл. И ладно бы погостила да махнула ручкой, так ведь нет: Джилл прочно обосновалась в доме братца и, кажется, в ближайшее время не собирается уезжать.-Доп. инфо: Релиз от -Тип релиза: BDRemux
Контейнер: MKV
Видео: MPEG-4 AVC / 19869 kbps / 1080p / 23.976 fps / 16:9 / High Profile 4.1
Аудио 1: Русский дубляж / Dolby Digital / 5.1 / 448 kbps / 48 kHz
Аудио 2: Украинский дубляж / Dolby Digital / 2.0 / 192 kbps / 48 kHz
Аудио 3: Английский / DTS-HD MA / 5.1 / 2131 kbps / 48 kHz / 16-bit (DTS Core: 5.1 / 48 kHz / 1509 kbps / 16-bit)
Cубтитры 1: Русские srt (только надписи и пр.)
Cубтитры 2: Русские srt
Cубтитры 3: Украинские srt (только надписи и пр.)
Cубтитры 4: Английские srt
Cубтитры 5: Английские PSDH pgs
Чаптеры: есть
-

MediaInfo

Код:
Полное имя                       : Jack.and.Jill.2011.Blu-ray.1080p.AVC.Rus.Ukr.Eng.mkv
Формат                           : Matroska
Версия формата                   : Version 2
Размер файла                     : 14,4 Гбайт
Продолжительность                : 1 ч. 30 м.
Общий поток                      : 22,7 Мбит/сек
Название фильма                  : HANSMER
Дата кодирования                 : UTC 2012-03-04 17:16:57
Программа кодирования            : mkvmerge v5.3.0 ('I could have danced') built on Feb  9 2012 10:38:07
Библиотека кодирования           : libebml v1.2.3 + libmatroska v1.3.0
Видео
Идентификатор                    : 1
Формат                           : AVC
Формат/Информация                : Advanced Video Codec
Профиль формата                  : High@L4.1
Параметр CABAC формата           : Да
Параметр ReFrames формата        : 2 кадра
Режим смешивания                 : Container profile=Unknown@0.0
Идентификатор кодека             : V_MPEG4/ISO/AVC
Продолжительность                : 1 ч. 30 м.
Вид битрейта                     : Переменный
Битрейт                          : 20,0 Мбит/сек
Ширина                           : 1920 пикселей
Высота                           : 1080 пикселей
Соотношение сторон               : 16:9
Частота кадров                   : 23,976 кадра/сек
Цветовое пространство            : YUV
Субдискретизация насыщенности    : 4:2:0
Битовая глубина                  : 8 бит
Тип развёртки                    : Прогрессивная
Бит/(Пиксели*Кадры)              : 0.403
Размер потока                    : 12,7 Гбайт (88%)
Заголовок                        : 19869 kbps
Язык                             : English
Аудио #1
Идентификатор                    : 2
Формат                           : AC-3
Формат/Информация                : Audio Coding 3
Расширение режима                : CM (complete main)
Идентификатор кодека             : A_AC3
Продолжительность                : 1 ч. 30 м.
Вид битрейта                     : Постоянный
Битрейт                          : 448 Кбит/сек
Каналы                           : 6 каналов
Расположение каналов             : Front: L C R, Side: L R, LFE
Частота                          : 48,0 КГц
Битовая глубина                  : 16 бит
Метод сжатия                     : С потерями
Размер потока                    : 291 Мбайт (2%)
Язык                             : Russian
Аудио #2
Идентификатор                    : 3
Формат                           : AC-3
Формат/Информация                : Audio Coding 3
Расширение режима                : CM (complete main)
Идентификатор кодека             : A_AC3
Продолжительность                : 1 ч. 30 м.
Вид битрейта                     : Постоянный
Битрейт                          : 192 Кбит/сек
Каналы                           : 2 канала
Расположение каналов             : Front: L R
Частота                          : 48,0 КГц
Битовая глубина                  : 16 бит
Метод сжатия                     : С потерями
Размер потока                    : 125 Мбайт (1%)
Язык                             : Ukrainian
Аудио #3
Идентификатор                    : 4
Формат                           : DTS
Формат/Информация                : Digital Theater Systems
Профиль формата                  : MA / Core
Идентификатор кодека             : A_DTS
Продолжительность                : 1 ч. 30 м.
Вид битрейта                     : Переменный
Битрейт                          : 1561 Кбит/сек / 1510 Кбит/сек
Каналы                           : 6 каналов
Расположение каналов             : Front: L C R, Side: L R, LFE
Частота                          : 48,0 КГц
Битовая глубина                  : 16 бит
Метод сжатия                     : Без потерь / Lossy
Заголовок                        : DTS-HD MA 5.1 @ 2131 kbps
Язык                             : English
Текст #1
Идентификатор                    : 5
Формат                           : UTF-8
Идентификатор кодека             : S_TEXT/UTF8
Идентификатор кодека/Информация  : UTF-8 Plain Text
Заголовок                        : Forced
Язык                             : Russian
Текст #2
Идентификатор                    : 6
Формат                           : UTF-8
Идентификатор кодека             : S_TEXT/UTF8
Идентификатор кодека/Информация  : UTF-8 Plain Text
Язык                             : Russian
Текст #3
Идентификатор                    : 7
Формат                           : UTF-8
Идентификатор кодека             : S_TEXT/UTF8
Идентификатор кодека/Информация  : UTF-8 Plain Text
Заголовок                        : Forced
Язык                             : Ukrainian
Текст #4
Идентификатор                    : 8
Формат                           : UTF-8
Идентификатор кодека             : S_TEXT/UTF8
Идентификатор кодека/Информация  : UTF-8 Plain Text
Язык                             : English
Текст #5
Идентификатор                    : 9
Формат                           : PGS
Идентификатор кодека             : S_HDMV/PGS
Идентификатор кодека/Информация  : The same subtitle format used on BDs/HD-DVDs
Заголовок                        : PSDH
Язык                             : English
Меню
00:00:00.000                     : en:Chapter 1
00:09:41.790                     : en:Chapter 2
00:16:52.929                     : en:Chapter 3
00:22:14.708                     : en:Chapter 4
00:26:29.963                     : en:Chapter 5
00:31:27.177                     : en:Chapter 6
00:36:48.581                     : en:Chapter 7
00:40:37.018                     : en:Chapter 8
00:45:05.202                     : en:Chapter 9
00:49:04.692                     : en:Chapter 10
00:53:34.545                     : en:Chapter 11
00:59:31.276                     : en:Chapter 12
01:03:36.187                     : en:Chapter 13
01:10:06.494                     : en:Chapter 14
01:16:51.232                     : en:Chapter 15
01:22:55.220                     : en:Chapter 16
-Источник:

_________________
dchub://neonhub37.no-ip.info:411
Показать сообщения:    

Текущее время: Сегодня 10:58

Часовой пояс: GMT



Вы не можете начинать темы
Вы не можете отвечать на сообщения
Вы не можете редактировать свои сообщения
Вы не можете удалять свои сообщения
Вы не можете голосовать в опросах
Вы не можете прикреплять файлы к сообщениям
Вы не можете скачивать файлы