Важное объявление!
У Нас Все раздачи мультитрекерные, при нуле пиров в релизах, можете смело вставать на закачку!
 
Автор Сообщение

PIONER

Стаж:
6 лет 3 месяца
Сообщений:
53

Репутация: -21

[+] [-]
Вне форума [Профиль] [ЛС]

ТАЙНА РАГНАРОКА-Gеten Ragnarok--
Год выпуска: 2013
Страна: Норвегия
Студии: Fantefilm, Film i V�st, Ghost VFX
Жанр: приключения, фэнтези, боевик
Продолжительность: 01:41:08-Перевод: Субтитры (Mannenr)
Озвучение: нет
Субтитры: русские
Оригинальная дорожка: норвежская-Режиссёр: Миккель Бренне Саннемусе / Mikkel Br�nne Sandemose
Сценарий: Йон Коре Роке
Композитор: Магнус Бейте-В ролях: Пол Сверре Хаген (Сигур), Николай Клеве Брок (Аллан), Cофия Хелин (Элизабет), Мария Аннетт Таннерёд Берглю (Рагнхилл), Юлиан Подольски (Браге), Бьёрн Сундквист (Лейф)-Археолог Сигур Свендсен уже много лет одержим историей судна викингов Осеберг. Единственная рунная надпись, найденная на этом корабле, гласит: «человек знает мало». Сигур уверен, что судно Осеберг скрывает ответ на тайну о Рагнароке — конце дней в скандинавской мифологии. Когда его друг Аллан находит подобные руны на камне с севера Норвегии, Сигур убеждается, что руны — это карта сокровищ. Вместе они отправляются в экспедицию, которая заводит их в «нейтральную зону» между Норвегией и Россией, которая не населена уже многие десятилетия. Здесь Сигур находит истинное значение рун, которые хранят ужасающую тайну.- -Качество: HDRip
Формат: AVI
Видео-кодек: XviD
Аудио-кодек: AC3
Видео: XviD, 720x304, 24 fps, 1611 kbps, 0.307 bit/pixel
Аудио: AC3, 48 kHz, 6 ch, 448 kbps
Субтитры: русские (sofsub)

MediaInfo

Код:
General
Complete name                  : D:\Translations\Тайна Рагнарока (G�ten Ragnarok, Norway) (2013)\Тайна Рагнарока (G�ten Ragnarok, Norway) (2013).avi
Format                         : AVI
Format/Info                    : Audio Video Interleave
File size                      : 1.46 GiB
Duration                       : 1h 41mn
Overall bit rate               : 2 069 Kbps
Writing application            : VirtualDubMod 1.5.10.3 | www.virtualdub-fr.org || (build 2550/release)
Writing library                : VirtualDubMod build 2550/release
Video
ID                             : 0
Format                         : MPEG-4 Visual
Format profile                 : Advanced Simple@L5
Format settings, BVOP          : Yes
Format settings, QPel          : No
Format settings, GMC           : No warppoints
Format settings, Matrix        : Custom
Codec ID                       : XVID
Codec ID/Hint                  : XviD
Duration                       : 1h 41mn
Bit rate                       : 1 611 Kbps
Width                          : 720 pixels
Height                         : 304 pixels
Display aspect ratio           : 2.35:1
Frame rate                     : 24.000 fps
Color space                    : YUV
Chroma subsampling             : 4:2:0
Bit depth                      : 8 bits
Scan type                      : Progressive
Compression mode               : Lossy
Bits/(Pixel*Frame)             : 0.307
Stream size                    : 1.14 GiB (78%)
Writing library                : XviD 1.2.1 (UTC 2008-12-04)
Audio
ID                             : 1
Format                         : AC-3
Format/Info                    : Audio Coding 3
Mode extension                 : CM (complete main)
Format settings, Endianness    : Big
Codec ID                       : 2000
Duration                       : 1h 41mn
Bit rate mode                  : Constant
Bit rate                       : 448 Kbps
Channel(s)                     : 6 channels
Channel positions              : Front: L C R, Side: L R, LFE
Sampling rate                  : 48.0 KHz
Bit depth                      : 16 bits
Compression mode               : Lossy
Stream size                    : 324 MiB (22%)
Alignment                      : Split accross interleaves
Interleave, duration           : 42 ms (1.00 video frame)
Interleave, preload duration   : 500 ms

Отрывок субтитров

4
00:01:38,974 --> 00:01:42,888
— Не по душе мне это.
— То желание Одина.
5
00:01:46,189 --> 00:01:48,727
Мы поступаем
неверно, отец.
6
00:01:53,989 --> 00:01:55,821
Оружие на изготовку!
7
00:02:08,629 --> 00:02:11,622
Твоя алчность нас погубит.
8
00:02:36,698 --> 00:02:38,530
Отец...
9
00:02:40,202 --> 00:02:41,488
Назад.
10
00:02:41,495 --> 00:02:42,952
Берегись!
11
00:05:14,439 --> 00:05:16,601
— Привет.
— Доброе утро.
12
00:05:36,336 --> 00:05:40,205
Браге, ты опять сидел
за моим компом?
13
00:05:40,966 --> 00:05:44,175
Опять куча странных писем.
14
00:05:44,177 --> 00:05:46,339
— Спама?
— Да. Рагнхилл?
15
00:05:46,346 --> 00:05:48,963
Я же просил тебя купить новый.
16
00:05:48,974 --> 00:05:51,011
Вернее, два. Ведь
ты мне задолжал один.

Скриншот с названием

-Источник:

_________________
Прошу отозваться людей, которые считают, что я их недолюбливаю. По возможности буду приходить и долюбливать.

HUNTER

Стаж:
4 года 10 месяцев
Сообщений:
65486

Репутация: 101

[+] [-]
Вне форума [Профиль] [ЛС]

http://iv-torrents.ru/viewtopic.php?t=23940

_________________
Показать сообщения:    

Текущее время: Сегодня 14:15

Часовой пояс: GMT



Вы не можете начинать темы
Вы не можете отвечать на сообщения
Вы не можете редактировать свои сообщения
Вы не можете удалять свои сообщения
Вы не можете голосовать в опросах
Вы не можете прикреплять файлы к сообщениям
Вы не можете скачивать файлы