Важное объявление!
У Нас Все раздачи мультитрекерные, при нуле пиров в релизах, можете смело вставать на закачку!
 
Автор Сообщение

HUNTER

Стаж:
4 года 9 месяцев
Сообщений:
65057

Репутация: 101

[+] [-]
Вне форума [Профиль] [ЛС]


Тайна красной планеты
Mars Needs Moms
-

  • Год производства: 2011

  • Страна: USA

  • Жанр: мультфильм, фантастика, комедия, приключения, семейный

  • Продолжительность: 01:28:04

  • Перевод: Профессиональный (полное дублирование)

  • Субтитры: русские,украинские,английские-
  • Режиссер: Саймон Уэллс / Simon Wells
    -
  • Описание: Есть мерзкую брокколи, выносить мусор, рано ложиться спать — кому вообще нужны мамы, заставляющие это делать? Так думал Майло, пока не обнаружил, что его маму похитили марсиане. Тут-то и оказалось, что ему предстоит отправиться на другую планету, чтобы найти маму и вернуть ее домой.
    -
  • Качество видео: BDRip 1080p

  • Формат видео: mkv

  • Видео кодек: H264

  • Аудио кодек: AC3

  • Видео: 1920x800 (2.40:1), 23.976 fps, 12.5 Mbps, 0.389 bit/pixel

  • Аудио#1: 48 kHz, AC3 6 ch ~384 kbps avg- Russian

  • Аудио#2: 48 kHz, AC3 6 ch ~384 kbps avg - Ukrainian

  • Аудио#3: DTS-HD Master Audio 7.1, 48 kHz, 5747 kbps, 24-bit (DTS Core: 5.1, 48 kHz, 1509 kbps, 24-bit - English

  • Аудио#4: 48 kHz, AC3 2 ch ~320 kbps avg - English Commentary-
  • Автор рипа: falco
-

Доп. информация

Скриншоты

MediaInfo

Код: copyText_writeLink('this.parentNode.parentNode.nextSibling.nextSibling');
General
Unique ID : 186479920058968655407676625744343047187 (0x8C4AB9E8B1315337BECFCBECA4CF9C13)
Complete name : D:\Торенты\Mars Needs Moms BDRip.1080p.falco.mkv
Format : Matroska
Format version : Version 4 / Version 2
File size : 11.9 GiB
Duration : 1h 28mn
Overall bit rate mode : Variable
Overall bit rate : 19.3 Mbps
Encoded date : UTC 2013-08-09 13:53:04
Writing application : mkvmerge v6.3.0 ('You can't stop me!') built on Jun 28 2013 20:09:41
Writing library : libebml v1.3.0 + libmatroska v1.4.0
Video
ID : 1
Format : AVC
Format/Info : Advanced Video Codec
Format profile : [url=mailto:High@L4.1]High@L4.1[/url]
Format settings, CABAC : Yes
Format settings, ReFrames : 3 frames
Codec ID : V_MPEG4/ISO/AVC
Duration : 1h 28mn
Bit rate : 14.3 Mbps
Nominal bit rate : 12.5 Mbps
Width : 1 920 pixels
Height : 800 pixels
Display aspect ratio : 2.40:1
Frame rate : 23.976 fps
Color space : YUV
Chroma subsampling : 4:2:0
Bit depth : 8 bits
Scan type : Progressive
Bits/(Pixel*Frame) : 0.389
Stream size : 8.81 GiB (74%)
Writing library : x264 core 65 r999kMod cc51047
Encoding settings : cabac=1 / ref=3 / deblock=1:0:0 / analyse=0x3:0x133 / me=umh / subme=6 / psy_rd=1.0:0.0 / mixed_ref=1 / me_range=16 / chroma_me=1 / trellis=1 / 8x8dct=1 / cqm=0 / deadzone=21,11 / chroma_qp_offset=-2 / threads=4 / thread_queue=4 / nr=0 / decimate=1 / mbaff=0 / bframes=3 / b_pyramid=1 / b_adapt=1 / b_bias=0 / direct=3 / wpredb=1 / keyint=250 / keyint_min=25 / scenecut=40(pre) / rc=2pass / bitrate=12495 / ratetol=1.0 / qcomp=0.60 / qpmin=10 / qpmax=51 / qpstep=4 / cplxblur=20.0 / qblur=0.5 / ip_ratio=1.40 / pb_ratio=1.30 / aq=1:1.00
Default : Yes
Forced : No
Audio #1
ID : 2
Format : AC-3
Format/Info : Audio Coding 3
Mode extension : CM (complete main)
Format settings, Endianness : Big
Codec ID : A_AC3
Duration : 1h 28mn
Bit rate mode : Constant
Bit rate : 384 Kbps
Channel(s) : 6 channels
Channel positions : Front: L C R, Side: L R, LFE
Sampling rate : 48.0 KHz
Bit depth : 16 bits
Compression mode : Lossy
Stream size : 242 MiB (2%)
Title : DUB
Language : Russian
Default : Yes
Forced : No
Audio #2
ID : 3
Format : AC-3
Format/Info : Audio Coding 3
Mode extension : CM (complete main)
Format settings, Endianness : Big
Codec ID : A_AC3
Duration : 1h 28mn
Bit rate mode : Constant
Bit rate : 384 Kbps
Channel(s) : 6 channels
Channel positions : Front: L C R, Side: L R, LFE
Sampling rate : 48.0 KHz
Bit depth : 16 bits
Compression mode : Lossy
Stream size : 242 MiB (2%)
Title : DUB
Language : Ukrainian
Default : No
Forced : No
Audio #3
ID : 4
Format : DTS
Format/Info : Digital Theater Systems
Format profile : MA / Core
Codec ID : A_DTS
Duration : 1h 28mn
Bit rate mode : Variable
Bit rate : 3 550 Kbps / 1 510 Kbps
Channel(s) : 8 channels / 6 channels
Channel positions : Front: L C R, Side: L R, Back: L R, LFE / Front: L C R, Side: L R, LFE
Sampling rate : 48.0 KHz
Bit depth : 24 bits
Compression mode : Lossless / Lossy
Title : Original
Language : English
Default : No
Forced : No
Audio #4
ID : 5
Format : AC-3
Format/Info : Audio Coding 3
Mode extension : CM (complete main)
Format settings, Endianness : Big
Codec ID : A_AC3
Duration : 1h 28mn
Bit rate mode : Constant
Bit rate : 320 Kbps
Channel(s) : 2 channels
Channel positions : Front: L R
Sampling rate : 48.0 KHz
Bit depth : 16 bits
Compression mode : Lossy
Stream size : 202 MiB (2%)
Title : Commentary
Language : English
Default : No
Forced : No
Text #1
ID : 6
Format : UTF-8
Codec ID : S_TEXT/UTF8
Codec ID/Info : UTF-8 Plain Text
Title : Sub
Language : Russian
Default : Yes
Forced : No
Text #2
ID : 7
Format : UTF-8
Codec ID : S_TEXT/UTF8
Codec ID/Info : UTF-8 Plain Text
Title : Sub
Language : Ukrainian
Default : No
Forced : No
Text #3
ID : 8
Format : UTF-8
Codec ID : S_TEXT/UTF8
Codec ID/Info : UTF-8 Plain Text
Title : Sub
Language : English
Default : No
Forced : No
Menu
00:00:00.000 : en:00:00:00.000
00:04:04.578 : en:00:04:04.578
00:09:15.013 : en:00:09:15.013
00:13:56.836 : en:00:13:56.836
00:19:13.402 : en:00:19:13.402
00:28:13.901 : en:00:28:13.901
00:34:29.776 : en:00:34:29.776
00:40:19.250 : en:00:40:19.250
00:47:15.624 : en:00:47:15.624
00:56:49.781 : en:00:56:49.781
01:09:03.348 : en:01:09:03.348
01:21:25.422 : en:01:21:25.422

_________________
Показать сообщения:    

Текущее время: Сегодня 10:54

Часовой пояс: GMT



Вы не можете начинать темы
Вы не можете отвечать на сообщения
Вы не можете редактировать свои сообщения
Вы не можете удалять свои сообщения
Вы не можете голосовать в опросах
Вы не можете прикреплять файлы к сообщениям
Вы не можете скачивать файлы