Ивановский Торрент трекер
Яндекс.Погода
 

[Цитировать]
HUNTER

Тайна Егора, или Необыкновенные приключения обыкновенным летом- -Страна: Россия
Жанр: приключения, детский
Год выпуска: 2012
Производство: «Кинопрограмма "XXI век"»
Продолжительность: 01:28:58
Оригинальная аудиодорожка: русский
Cубтитры: нет-Режиссер: Александра Ерофеева-В ролях:
Егор Клинаев, Денис Суханов, Юлия Анищенко, Ольга Волкова, Кирилл Кяро, Агриппина Стеклова, Александр Вдовин,
Марина Дровосекова, Константин Юдаев, Анна Гвоздь, Иван Мамонов, Валентин Садики, Олег Чаплыгин, Юля Чаплыгина-Описание:
Тёма Круглов, 12-летний школьник, мечтал провести летние каникулы, как ему нравится: целыми днями играть в компьютерные игры, а потом с мамой и отчимом поехать на море. Однако обстоятельства сложились так, что он оказался на чужой даче, без интернета, да ещё в компании собственного отца Олега, с которым до этого почти не общался. Найти общий язык Тёме и Олегу помогают загадочные события, которые происходят в развалинах старинной усадьбы, находящейся недалеко от дачи…-Возраст: 6+-Качество: HDTV (1080i)
Формат: TS
Видео кодек: AVC
Аудио кодек: AC3

Видео: AVC, 1920 х 1080 (16:9), 25.000 кадр/сек, 6 627 Кбит/сек, 0.128 bit/pixel
Аудио: AC3, 48000 Hz, 256 Kbps, 2 канала
-

MediaInfo

General
ID : 1 (0x1)
Complete name : D:\Раздачи\Тайна Егора, или Необыкновенные приключения обыкновенным летом HDTV (1080i)\Тайна Егора, или Необыкновенные приключения обыкновенным летом HDTV (1080i).ts
Format : MPEG-TS
File size : 4.50 GiB
Duration : 1h 28mn
Overall bit rate mode : Variable
Overall bit rate : 7 244 Kbps
Maximum Overall bit rate : 35.5 Mbps
Video
ID : 4113 (0x1011)
Menu ID : 1 (0x1)
Format : AVC
Format/Info : Advanced Video Codec
Format profile : Main@L4
Format settings, CABAC : Yes
Format settings, ReFrames : 3 frames
Codec ID : 27
Duration : 1h 28mn
Bit rate mode : Variable
Bit rate : 6 627 Kbps
Maximum bit rate : 40.0 Mbps
Width : 1 920 pixels
Height : 1 080 pixels
Display aspect ratio : 16:9
Frame rate : 25.000 fps
Standard : Component
Color space : YUV
Chroma subsampling : 4:2:0
Bit depth : 8 bits
Scan type : Interlaced
Scan type, store method : Separated fields
Scan order : Top Field First
Bits/(Pixel*Frame) : 0.128
Stream size : 4.12 GiB (91%)
Color range : Limited
Color primaries : BT.709
Transfer characteristics : BT.709
Matrix coefficients : BT.709
Audio
ID : 4352 (0x1100)
Menu ID : 1 (0x1)
Format : AC-3
Format/Info : Audio Coding 3
Mode extension : CM (complete main)
Format settings, Endianness : Big
Codec ID : 129
Duration : 1h 28mn
Bit rate mode : Constant
Bit rate : 256 Kbps
Channel(s) : 2 channels
Channel positions : Front: L R
Sampling rate : 48.0 KHz
Frame rate : 31.250 fps (1536 spf)
Compression mode : Lossy
Stream size : 163 MiB (4%)
Language : Russian

Скриншоты


-Раздаю до первых 5-ти скачавших, на раздачи не возвращаюсь...-
Показать сообщения:    

Текущее время: 24-Сен 04:12

Часовой пояс: UTC - 1


Вы не можете начинать темы
Вы не можете отвечать на сообщения
Вы не можете редактировать свои сообщения
Вы не можете удалять свои сообщения
Вы не можете голосовать в опросах
Вы не можете прикреплять файлы к сообщениям
Вы не можете скачивать файлы

!ВНИМАНИЕ!
Сайт не предоставляет электронные версии произведений, а занимается лишь коллекционированием и каталогизацией ссылок, присылаемых и публикуемых на форуме нашими читателями. Если вы являетесь правообладателем какого-либо представленного материала и не желаете, чтобы ссылка на него находилась в нашем каталоге, свяжитесь с нами, и мы незамедлительно удалим ее. Файлы для обмена на трекере предоставлены пользователями сайта, и администрация не несет ответственности за их содержание. Просьба не заливать файлы, защищенные авторскими правами, а также файлы нелегального содержания!