Ивановский Торрент трекер
Яндекс.Погода
 

[Цитировать]
HUNTER

Таймлесс 2: Сапфировая книга / Saphirblau«Любовь будет вечной, если ты повелитель времени» Страна: Германия
Жанр: фантастика, фэнтези, драма, мелодрама, детектив
Год выпуска: 2014
релиз на DVD: 2 декабря 2014, «CD Land»
Продолжительность: 01:51:47
Перевод: Профессиональный (многоголосый закадровый)
Cубтитры: отсутствуют
Режиссер: Феликс Фуксштайнер / Felix Fuchssteiner, Катарина Шёде / Katharina Schode
В ролях: Мария Эрих, Яннис Нивёнер, Петер Симонишек, Йозефина Пройсс, Флориан Бартоломай, Руфус Бек, Лаура Берлин, Сандра Боргманн, Юстина дель Корте, Вероника Феррес
Описание: Приключения юной Гвендолин Шеферд продолжаются. Она начинает все больше узнавать о тайнах мира путешественников во времени. Ей предстоит разгадать больше загадок и научиться быть светской леди для приемов в 18 веке. Гвендолин узнает больше о своей семье, в первую очередь о ее дедушке Лукасе. Также Гвен подозревает, что Гидеон скрывает что-то от нее, возможно какую-то сокровенную страшную тайну… Но с появлением нового, слегка надоедливого друга Ксемериуса, девушке становится легче преодолевать все препятствия на пути.


Дополнительные материалы:
- отсутствуют
Меню: есть, на русском
Тип релиза: DVD5 R5
Контейнер: DVD-Video
Видео кодек: MPEG2
Аудио кодек: AC3
Видео: PAL 16:9 (720x576) VBR Auto Letterboxed ~ 4616 kbps avg
Аудио: Russian (Dolby AC3, 6 ch, 448 kbps)

DVDInfo

Title: Saphirblau.2014.DVD.R5.NiP
Size: 4.11 Gb ( 4 312 350,00 KBytes ) - DVD-5
Enabled regions: 1, 2, 3, 4, 5, 6, 7, 8
VTS_01 :
Play Length: 00:00:19
Video: PAL 16:9 (720x576) VBR, Auto Pan&Scan, Auto Letterboxed
Audio:
Not specified (Dolby AC3, 2 ch)
VTS_02 :
Play Length: 01:51:47
Video: PAL 16:9 (720x576) VBR, Auto Pan&Scan, Auto Letterboxed
Audio:
Not specified (Dolby AC3, 6 ch)
* Menus Information *
VIDEO_TS Menu
Video:
PAL 16:9 (720x576) VBR
Auto Pan&Scan, Auto Letterboxed
English Language Unit :
Title Menu
VTS_01 Menu
Video:
PAL 16:9 (720x576) VBR
Auto Pan&Scan, Auto Letterboxed
Audio:
Not specified (Dolby AC3, 6 ch)
English Language Unit :
Root Menu
VTS_02 Menu
Video:
PAL 4:3 (720x576) VBR
English Language Unit :
Root Menu

MediaInfo

Общее
Полное имя : I:\DVD_\Saphirblau.2014.DVD.R5.NiP\VIDEO_TS\VTS_02_4.VOB
Формат : MPEG-PS
Размер файла : 1024 Мбайт
Продолжительность : 27 м.
Режим общего битрейта : Переменный
Общий поток : 5167 Кбит/сек
Видео
Идентификатор : 224 (0xE0)
Формат : MPEG Video
Версия формата : Version 2
Профиль формата : Main@Main
Параметр BVOP формата : Да
Параметр матрицы формата : Выборочная
Параметр GOP формата : M=3, N=12
Продолжительность : 27 м.
Вид битрейта : Переменный
Битрейт : 4616 Кбит/сек
Максимальный битрейт : 9000 Кбит/сек
Ширина : 720 пикселей
Высота : 576 пикселей
Соотношение сторон : 16:9
Частота кадров : 25,000 кадров/сек
Стандарт вещания : PAL
Цветовое пространство : YUV
Субдискретизация насыщенности : 4:2:0
Битовая глубина : 8 бит
Тип развёртки : Чересстрочная
Порядок развёртки : Верхнее поле первое
Метод сжатия : С потерями
Бит/(Пиксели*Кадры) : 0.445
Временной код первого кадра : 01:23:26:10
Оригинал временного кода : Group of pictures header
Размер потока : 915 Мбайт (89%)
Основные цвета : BT.601 PAL
Характеристики трансфера : BT.470 System B, BT.470 System G
Коэффициенты матрицы : BT.601
Аудио
Идентификатор : 189 (0xBD)-128 (0x80)
Формат : AC-3
Формат/Информация : Audio Coding 3
Расширение режима : CM (complete main)
Параметр Endianness формата : Big
Режим смешивания : DVD-Video
Продолжительность : 27 м.
Вид битрейта : Постоянный
Битрейт : 448 Кбит/сек
Каналы : 6 каналов
Расположение каналов : Front: L C R, Side: L R, LFE
Частота : 48,0 КГц
Битовая глубина : 16 бит
Метод сжатия : С потерями
Задержка видео : -288 мс.
Размер потока : 88,8 Мбайт (9%)
Меню

Скриншоты меню

Скриншоты



Показать сообщения:    

Текущее время: 16-Дек 07:23

Часовой пояс: UTC ± 0


Вы не можете начинать темы
Вы не можете отвечать на сообщения
Вы не можете редактировать свои сообщения
Вы не можете удалять свои сообщения
Вы не можете голосовать в опросах
Вы не можете прикреплять файлы к сообщениям
Вы не можете скачивать файлы

!ВНИМАНИЕ!
Сайт не предоставляет электронные версии произведений, а занимается лишь коллекционированием и каталогизацией ссылок, присылаемых и публикуемых на форуме нашими читателями. Если вы являетесь правообладателем какого-либо представленного материала и не желаете, чтобы ссылка на него находилась в нашем каталоге, свяжитесь с нами, и мы незамедлительно удалим ее. Файлы для обмена на трекере предоставлены пользователями сайта, и администрация не несет ответственности за их содержание. Просьба не заливать файлы, защищенные авторскими правами, а также файлы нелегального содержания!