Важное объявление!
У Нас Все раздачи мультитрекерные, при нуле пиров в релизах, можете смело вставать на закачку!
 
Автор Сообщение

HUNTER

Стаж:
4 года 7 месяцев
Сообщений:
61554

Репутация: 101

[+] [-]
Вне форума [Профиль] [ЛС]

Таймлесс. Рубиновая книга / Rubinrot
Страна: Германия
Студия: Bayerischer Banken-Fonds
Жанр: фантастика, фэнтези, приключения
Год выпуска: 2013
Продолжительность: 02:01:11
Перевод: Профессиональный (дублированный) Blu-Ray
Cубтитры: русские
Режиссер: Мария Эрих, Янис Нивёнер, Вероника Феррес, Уве Кокиш, Катарина Тальбах, Флориан Бартоломай, Лаура Берлин, Анна Бётхер, Сибулле Каноника, Джастин Дель Корте
Описание: Живущая в Лондоне шестнадцатилетняя Гвендолин Шеферд случайно узнает, что обладает уникальным геном путешественника во времени, который унаследовала от прапрабабушки. Теперь девушка может ежедневно переноситься в прошлое, и с каждым днем загадок становится все больше. Что такое «Тайна Двенадцати»? Кто охотится на путешественников во времени в прошлом? И почему все вокруг думают, что она обладает какой-то «магией ворона»?

Релиз: fanatus
Качество видео: BDRip (AVC)
Исходник: Blu-Ray [HDCLUB]
Контейнер: MKV
Видео: MPEG-4 AVC, 1329 kbps , 960x402 (2.40:1), 24.000 fps, 0.143 bit/pixel
Аудио: русский (AC3, 6 ch, 48 kHz, 384 kbps)
Формат субтитров: softsub (SRT)
Главы: есть

MediaInfo

General
Unique ID : 209811298318396711085039421578321406169 (0x9DD82FAB79056AB3B993DA9512E928D9)
Complete name : D:\Tajmless.Rubinovaja.kniga.2013.x264.BDRip.(AVC).fanatus.mkv
Format : Matroska
Format version : Version 2
File size : 1.45 GiB
Duration : 2h 1mn
Overall bit rate : 1 713 Kbps
Movie name : Rubinrot (2013) - fanatus
Encoded date : UTC 2013-05-21 17:28:24
Writing application : mkvmerge v3.4.0 ('Rapunzel') сборка от May 15 2010 09:38:20
Writing library : libebml v0.8.0 + libmatroska v0.9.0
Video
ID : 1
Format : AVC
Format/Info : Advanced Video Codec
Format profile : High@L4.1
Format settings, CABAC : Yes
Format settings, ReFrames : 10 frames
Codec ID : V_MPEG4/ISO/AVC
Duration : 2h 1mn
Bit rate : 1 329 Kbps
Width : 960 pixels
Height : 402 pixels
Display aspect ratio : 2.40:1
Frame rate : 24.000 fps
Color space : YUV
Chroma subsampling : 4:2:0
Bit depth : 8 bits
Scan type : Progressive
Bits/(Pixel*Frame) : 0.143
Stream size : 1.10 GiB (76%)
Title : Rubinrot (2013)
Writing library : x264 core 132 r2310 76a5c3a
Encoding settings : cabac=1 / ref=10 / deblock=1:-2:-2 / analyse=0x3:0x113 / me=umh / subme=11 / psy=1 / psy_rd=1.00:0.02 / mixed_ref=1 / me_range=32 / chroma_me=1 / trellis=2 / 8x8dct=1 / cqm=0 / deadzone=21,11 / fast_pskip=0 / chroma_qp_offset=-3 / threads=16 / lookahead_threads=3 / sliced_threads=0 / nr=0 / decimate=0 / interlaced=0 / bluray_compat=0 / constrained_intra=0 / bframes=13 / b_pyramid=2 / b_adapt=2 / b_bias=0 / direct=3 / weightb=1 / open_gop=0 / weightp=2 / keyint=240 / keyint_min=24 / scenecut=40 / intra_refresh=0 / rc_lookahead=240 / rc=2pass / mbtree=0 / bitrate=1329 / ratetol=1.0 / qcomp=0.65 / qpmin=0 / qpmax=69 / qpstep=4 / cplxblur=20.0 / qblur=0.5 / vbv_maxrate=50000 / vbv_bufsize=62500 / nal_hrd=none / ip_ratio=1.40 / pb_ratio=1.30 / aq=2:0.90 / zones=167850,174520,q=33
Language : German
Default : Yes
Forced : No
Color primaries : BT.709-5, BT.1361, IEC 61966-2-4, SMPTE RP177
Transfer characteristics : BT.709-5, BT.1361
Matrix coefficients : BT.709-5, BT.1361, IEC 61966-2-4 709, SMPTE RP177
Audio
ID : 2
Format : AC-3
Format/Info : Audio Coding 3
Mode extension : CM (complete main)
Format settings, Endianness : Big
Codec ID : A_AC3
Duration : 2h 1mn
Bit rate mode : Constant
Bit rate : 384 Kbps
Channel(s) : 6 channels
Channel positions : Front: L C R, Side: L R, LFE
Sampling rate : 48.0 KHz
Bit depth : 16 bits
Compression mode : Lossy
Stream size : 333 MiB (22%)
Title : Dub
Language : Russian
Default : Yes
Forced : No
Text
ID : 3
Format : UTF-8
Codec ID : S_TEXT/UTF8
Codec ID/Info : UTF-8 Plain Text
Language : Russian
Default : No
Forced : No
Menu
00:00:00.000 : en:Chapter 01
00:10:19.041 : en:Chapter 02
00:21:18.500 : en:Chapter 03
00:29:59.958 : en:Chapter 04
00:41:16.041 : en:Chapter 05
00:50:28.416 : en:Chapter 06
01:01:38.291 : en:Chapter 07
01:11:21.083 : en:Chapter 08
01:21:45.958 : en:Chapter 09
01:30:01.125 : en:Chapter 10
01:40:53.541 : en:Chapter 11
01:50:11.291 : en:Chapter 12
02:01:11.666 : en:Chapter 13

x264 [info]

---[NoImage] raw [info]: 960x402p 1:1 @ 24/1 fps (cfr)
---[NoImage] x264 [info]: using SAR=1/1
---[NoImage] x264 [info]: using cpu capabilities: MMX2 SSE2Fast SSEMisalign LZCNT
---[NoImage] x264 [info]: profile High, level 4.1
---[NoImage]
---[NoImage] x264 [info]: frame I:1619 Avg QP:18.72 size: 48579
---[NoImage] x264 [info]: frame P:41878 Avg QP:22.84 size: 14089
---[NoImage] x264 [info]: frame B:131024 Avg QP:24.26 size: 4106
---[NoImage] x264 [info]: consecutive B-frames: 3.3% 3.6% 10.4% 27.8% 18.8% 27.3% 4.0% 1.3% 1.0% 0.7% 0.5% 0.4% 0.3% 0.6%
---[NoImage] x264 [info]: mb I I16..4: 5.2% 69.5% 25.4%
---[NoImage] x264 [info]: mb P I16..4: 1.4% 8.5% 2.4% P16..4: 35.1% 34.4% 10.2% 0.0% 0.0% skip: 8.1%
---[NoImage] x264 [info]: mb B I16..4: 0.2% 1.0% 0.3% B16..8: 33.4% 16.8% 2.4% direct: 3.4% skip:42.5% L0:40.4% L1:46.0% BI:13.6%
---[NoImage] x264 [info]: 8x8 transform intra:68.3% inter:62.1%
---[NoImage] x264 [info]: direct mvs spatial:96.6% temporal:3.4%
---[NoImage] x264 [info]: coded y,uvDC,uvAC intra: 74.2% 70.3% 34.8% inter: 17.4% 13.1% 3.7%
---[NoImage] x264 [info]: i16 v,h,dc,p: 46% 14% 7% 33%
---[NoImage] x264 [info]: i8 v,h,dc,ddl,ddr,vr,hd,vl,hu: 17% 7% 7% 8% 12% 13% 11% 12% 12%
---[NoImage] x264 [info]: i4 v,h,dc,ddl,ddr,vr,hd,vl,hu: 34% 7% 6% 6% 10% 11% 9% 9% 9%
---[NoImage] x264 [info]: i8c dc,h,v,p: 29% 32% 25% 14%
---[NoImage] x264 [info]: Weighted P-Frames: Y:4.2% UV:1.5%
---[NoImage] x264 [info]: ref P L0: 52.2% 13.9% 15.0% 5.1% 4.1% 3.0% 2.5% 1.4% 1.3% 1.3% 0.3% 0.0%
---[NoImage] x264 [info]: ref B L0: 78.8% 9.5% 4.7% 2.2% 1.8% 1.2% 1.0% 0.4% 0.3%
---[NoImage] x264 [info]: ref B L1: 93.4% 6.6%
---[NoImage] x264 [info]: kb/s:1327.51
---[NoImage] encoded 174521 frames, 18.88 fps, 1327.51 kb/s

Скриншот c названием фильма

Скриншоты


_________________
Показать сообщения:    

Текущее время: Сегодня 09:23

Часовой пояс: GMT



Вы не можете начинать темы
Вы не можете отвечать на сообщения
Вы не можете редактировать свои сообщения
Вы не можете удалять свои сообщения
Вы не можете голосовать в опросах
Вы не можете прикреплять файлы к сообщениям
Вы не можете скачивать файлы
Наши партнеры: интернет магазин Ивановского трикотажа textilla.ru