Ивановский Торрент трекер
Яндекс.Погода
 

[Цитировать]
HUNTER

Таинственная незнакомка 1: Таинственный уик-энд / Mystery Woman: Mystery Weekend
Год выпуска: 2005
Страна: США
Жанр: Детектив
Продолжительность: 01:23:29
Перевод: Профессиональный (многоголосый закадровый)
Русские субтитры: нет
Режиссёр: Марк Гриффитс / Mark Griffiths
В ролях: Келли Мартин, Кларенс Уильямс III, Нина Семашко
Описание:
Любительница детективов и хозяйка книжного магазина Саманта Кинси пригласила трёх наиболее популярных авторов для встречи с читателями. Этот рекламный трюк оборачивается реальным убийством и вынуждает Саманту выявить подозреваемых и мотивы убийства, прежде чем фанат-убийца нанесёт новый удар.

Сэмпл: http://rusfolder.com/42165093
Качество: HDTV 1080i
Формат: TS
Видео кодек: H.264
Аудио кодек: MP2
Видео: AVC/H.264, PAL, 1920х1080 (16:9), 25 fps, 8621 kbps
Аудио: русский, MP-2, 48000 Hz, 192 Кбит/сек, 2 ch

MediaInfo

Общее
Идентификатор : 1 (0x1)
Полное имя : D:\Таинственная незнакомка\Таинственная незнакомка 1. Таинственный уик-энд.ts
Формат : MPEG-TS
Размер файла : 5,41 Гбайт
Продолжительность : 1 ч. 23 м.
Режим общего битрейта : Переменный
Общий поток : 9273 Кбит/сек
Максимальный общий битрейт : 35,5 Мбит/сек
Видео
Идентификатор : 4113 (0x1011)
Идентификатор меню : 1 (0x1)
Формат : AVC
Формат/Информация : Advanced Video Codec
Профиль формата : Main@L4.0
Параметр CABAC формата : Да
Параметр ReFrames формата : 3 кадра
Параметр GOP формата : M=4, N=32
Идентификатор кодека : 27
Продолжительность : 1 ч. 23 м.
Вид битрейта : Переменный
Битрейт : 8621 Кбит/сек
Максимальный битрейт : 40,0 Мбит/сек
Ширина : 1920 пикселей
Высота : 1080 пикселей
Соотношение сторон : 16:9
Частота кадров : 25,000 кадров/сек
Стандарт вещания : Component
Цветовое пространство : YUV
Субдискретизация насыщенности : 4:2:0
Битовая глубина : 8 бит
Тип развёртки : Чересстрочная
Порядок развёртки : Верхнее поле первое
Бит/(Пиксели*Кадры) : 0.166
Размер потока : 5,03 Гбайт (93%)
Основные цвета : BT.709
Характеристики трансфера : BT.709
Коэффициенты матрицы : BT.709
Аудио
Идентификатор : 4352 (0x1100)
Идентификатор меню : 1 (0x1)
Формат : MPEG Audio
Версия формата : Version 1
Профиль формата : Layer 2
Идентификатор кодека : 4
Продолжительность : 1 ч. 23 м.
Вид битрейта : Постоянный
Битрейт : 192 Кбит/сек
Каналы : 2 канала
Частота : 48,0 КГц
Метод сжатия : С потерями
Размер потока : 115 Мбайт (2%)
Язык : Russian

Скриншот с названием фильма

Скриншоты

-Таинственная незнакомка 2: Роковые снимки / Mystery Woman: Snapshot
Год выпуска: 2005
Страна: США
Жанр: Детектив
Продолжительность: 01:21:32
Перевод: Профессиональный (многоголосый закадровый)
Русские субтитры: нет
Режиссёр: Георг Стэнфорд Браун / Georg Stanford Brown
В ролях: Келли Мартин, Кларенс Уильямс III, Нина Семашко
Описание:
В автокатастрофе погибает брат Барбары, подруги Саманты — в полиции говорят, что он «по пьяни не вписался в поворот». Выстрелом в грудь на пороге своего дома убита сама Барбара — в полиции склоняются к версии ограбления. Однако при жизни Барбара в беседах с Самантой говорила, что ее родственники ведут грязную игру вокруг наследства, и когда Барбара погибает, Саманта ни минуты не сомневается, что ее подруга убита по другим причинам. Еще бы — кто же пойдет на ограбление с Люггером времен 2-й мировой войны? Да и брат Барбары из-за диабета давно бросил не то что пить, а даже выпивать!!!
Полиция ее не слышит, и тогда любительница частного сыска берется за самостоятельное расследование с целью выяснить: был ли это зловещий семейный заговор, отягощенный круговой порукой, или орудует хитроумный одиночка…, а наткнувшись на букет с запиской «Занимайся своими делами или эти цветы принесут на твою могилу» она понимает, что ее путь верный, хотя и ведет ее, как и все предыдущие расследования, по лезвию бритвы…

Сэмпл: http://rusfolder.com/42165643
Качество: HDTV 1080i
Формат: TS
Видео кодек: H.264
Аудио кодек: MP2
Видео: AVC/H.264, PAL, 1920х1080 (16:9), 25 fps, 8756 kbps
Аудио: русский, MP-2, 48000 Hz, 192 Кбит/сек, 2 ch

MediaInfo

Общее
Идентификатор : 1 (0x1)
Полное имя : D:\Таинственная незнакомка - Mystery Woman [by Romanok8691]\Таинственная незнакомка 2. Роковые снимки..ts
Формат : MPEG-TS
Размер файла : 5,36 Гбайт
Продолжительность : 1 ч. 21 м.
Режим общего битрейта : Переменный
Общий поток : 9415 Кбит/сек
Максимальный общий битрейт : 35,5 Мбит/сек
Видео
Идентификатор : 4113 (0x1011)
Идентификатор меню : 1 (0x1)
Формат : AVC
Формат/Информация : Advanced Video Codec
Профиль формата : Main@L4.0
Параметр CABAC формата : Да
Параметр ReFrames формата : 3 кадра
Идентификатор кодека : 27
Продолжительность : 1 ч. 21 м.
Вид битрейта : Переменный
Битрейт : 8756 Кбит/сек
Максимальный битрейт : 40,0 Мбит/сек
Ширина : 1920 пикселей
Высота : 1080 пикселей
Соотношение сторон : 16:9
Частота кадров : 25,000 кадров/сек
Стандарт вещания : Component
Цветовое пространство : YUV
Субдискретизация насыщенности : 4:2:0
Битовая глубина : 8 бит
Тип развёртки : Чересстрочная
Порядок развёртки : Верхнее поле первое
Бит/(Пиксели*Кадры) : 0.169
Размер потока : 4,99 Гбайт (93%)
Аудио
Идентификатор : 4352 (0x1100)
Идентификатор меню : 1 (0x1)
Формат : MPEG Audio
Версия формата : Version 1
Профиль формата : Layer 2
Идентификатор кодека : 4
Продолжительность : 1 ч. 21 м.
Вид битрейта : Постоянный
Битрейт : 192 Кбит/сек
Каналы : 2 канала
Частота : 48,0 КГц
Метод сжатия : С потерями
Размер потока : 112 Мбайт (2%)
Язык : Russian

Скриншот с названием фильма

Скриншоты

-Таинственная незнакомка 3: Песнь об убийстве. / Mystery Woman: Sing me a Murder
Год выпуска: 2005
Страна: США
Жанр: Детектив
Продолжительность: 01:23:31
Перевод: Профессиональный (многоголосый закадровый)
Русские субтитры: нет
Режиссёр: Келли Мартин / Kellie Martin
В ролях: Келли Мартин, Кларенс Уильямс III, Нина Семашко
Описание:
Правильное — Саманта Кинси, решившая провести выходные на курорте, неожиданно оказывается втянутой в серьезные неприятности, связанные с убийством одной из посетительниц. Мотивы убийства могут быть различными: жадность, измена, предательство. И только экстрасенсу дано узнать, что же на самом деле произошло и почему?

Сэмпл: http://rusfolder.com/42165675
Качество: HDTV 1080i
Формат: TS
Видео кодек: H.264
Аудио кодек: MP2
Видео: AVC/H.264, PAL, 1920х1080 (16:9), 25 fps, 9332 kbps
Аудио: русский, MP-2, 48000 Hz, 192 Кбит/сек, 2 ch

MediaInfo

Общее
Идентификатор : 1 (0x1)
Полное имя : D:\Таинственная незнакомка - Mystery Woman [by Romanok8691]\Таинственная незнакомка 3. Песнь об убийствее..ts
Формат : MPEG-TS
Размер файла : 5,85 Гбайт
Продолжительность : 1 ч. 23 м.
Режим общего битрейта : Переменный
Общий поток : 10,0 Мбит/сек
Максимальный общий битрейт : 35,5 Мбит/сек
Видео
Идентификатор : 4113 (0x1011)
Идентификатор меню : 1 (0x1)
Формат : AVC
Формат/Информация : Advanced Video Codec
Профиль формата : Main@L4.0
Параметр CABAC формата : Да
Параметр ReFrames формата : 3 кадра
Идентификатор кодека : 27
Продолжительность : 1 ч. 23 м.
Вид битрейта : Переменный
Битрейт : 9332 Кбит/сек
Максимальный битрейт : 40,0 Мбит/сек
Ширина : 1920 пикселей
Высота : 1080 пикселей
Соотношение сторон : 16:9
Частота кадров : 25,000 кадров/сек
Стандарт вещания : Component
Цветовое пространство : YUV
Субдискретизация насыщенности : 4:2:0
Битовая глубина : 8 бит
Тип развёртки : Чересстрочная
Порядок развёртки : Верхнее поле первое
Бит/(Пиксели*Кадры) : 0.180
Размер потока : 5,44 Гбайт (93%)
Основные цвета : BT.709
Характеристики трансфера : BT.709
Коэффициенты матрицы : BT.709
Аудио
Идентификатор : 4352 (0x1100)
Идентификатор меню : 1 (0x1)
Формат : MPEG Audio
Версия формата : Version 1
Профиль формата : Layer 2
Идентификатор кодека : 4
Продолжительность : 1 ч. 23 м.
Вид битрейта : Постоянный
Битрейт : 192 Кбит/сек
Каналы : 2 канала
Частота : 48,0 КГц
Метод сжатия : С потерями
Размер потока : 115 Мбайт (2%)
Язык : Russian

Скриншот с названием фильма

Скриншоты


-
Таинственная незнакомка 7: С первого взгляда. / Mystery Woman: At First Sight
Год выпуска: 2006
Страна: США
Жанр: Детектив
Продолжительность: 01:21:36
Перевод: Профессиональный (многоголосый закадровый)
Русские субтитры: нет
Режиссёр: Келли Мартин / Kellie Martin
В ролях: Келли Мартин, Кларенс Уильямс III, Нина Семашко
Описание:
Во время визита к врачу-окулисту Саманта, удочеренная приемными родителями, узнает, что все её проблемы со зрением, возможно, связаны с наследственностью. Начав поиски своей биологической матери, она сталкивается с убийством. Теперь Саманте предстоит доказать, что найденная ей мать — невиновна.

Сэмпл: http://rusfolder.com/42165714
Качество: HDTV 1080i
Формат: TS
Видео кодек: H.264
Аудио кодек: MP2
Видео: AVC/H.264, PAL, 1920х1080 (16:9), 25 fps, 9578 kbps
Аудио: русский, MP-2, 48000 Hz, 192 Кбит/сек, 2 ch

MediaInfo

Общее
Идентификатор : 1 (0x1)
Полное имя : D:\Таинственная незнакомка - Mystery Woman [by Romanok8691]\Таинственная незнакомка 7. С первого взгляда..ts
Формат : MPEG-TS
Размер файла : 5,86 Гбайт
Продолжительность : 1 ч. 21 м.
Режим общего битрейта : Переменный
Общий поток : 10,3 Мбит/сек
Максимальный общий битрейт : 35,5 Мбит/сек
Видео
Идентификатор : 4113 (0x1011)
Идентификатор меню : 1 (0x1)
Формат : AVC
Формат/Информация : Advanced Video Codec
Профиль формата : Main@L4.0
Параметр CABAC формата : Да
Параметр ReFrames формата : 3 кадра
Идентификатор кодека : 27
Продолжительность : 1 ч. 21 м.
Вид битрейта : Переменный
Битрейт : 9578 Кбит/сек
Максимальный битрейт : 40,0 Мбит/сек
Ширина : 1920 пикселей
Высота : 1080 пикселей
Соотношение сторон : 16:9
Частота кадров : 25,000 кадров/сек
Стандарт вещания : Component
Цветовое пространство : YUV
Субдискретизация насыщенности : 4:2:0
Битовая глубина : 8 бит
Тип развёртки : Чересстрочная
Порядок развёртки : Верхнее поле первое
Бит/(Пиксели*Кадры) : 0.185
Размер потока : 5,46 Гбайт (93%)
Аудио
Идентификатор : 4352 (0x1100)
Идентификатор меню : 1 (0x1)
Формат : MPEG Audio
Версия формата : Version 1
Профиль формата : Layer 2
Идентификатор кодека : 4
Продолжительность : 1 ч. 21 м.
Вид битрейта : Постоянный
Битрейт : 192 Кбит/сек
Каналы : 2 канала
Частота : 48,0 КГц
Метод сжатия : С потерями
Размер потока : 112 Мбайт (2%)
Язык : Russian

Скриншот с названием фильма

Скриншоты



Показать сообщения:    

Текущее время: 14-Дек 04:37

Часовой пояс: UTC ± 0


Вы не можете начинать темы
Вы не можете отвечать на сообщения
Вы не можете редактировать свои сообщения
Вы не можете удалять свои сообщения
Вы не можете голосовать в опросах
Вы не можете прикреплять файлы к сообщениям
Вы не можете скачивать файлы

!ВНИМАНИЕ!
Сайт не предоставляет электронные версии произведений, а занимается лишь коллекционированием и каталогизацией ссылок, присылаемых и публикуемых на форуме нашими читателями. Если вы являетесь правообладателем какого-либо представленного материала и не желаете, чтобы ссылка на него находилась в нашем каталоге, свяжитесь с нами, и мы незамедлительно удалим ее. Файлы для обмена на трекере предоставлены пользователями сайта, и администрация не несет ответственности за их содержание. Просьба не заливать файлы, защищенные авторскими правами, а также файлы нелегального содержания!