Важное объявление!
У Нас Все раздачи мультитрекерные, при нуле пиров в релизах, можете смело вставать на закачку!
Статистика раздачи
Размер:     |    Зарегистрирован:     |    Скачан:     |   
Нет
 
     
 
 
Автор Сообщение

HUNTER

Стаж:
5 лет
Сообщений:
68004

Репутация: 101

[+] [-]
Вне форума [Профиль] [ЛС]

Таверна «Ямайка» / Jamaica Inn
Страна: Великобритания
Жанр: криминал, приключения
Год выпуска: 1939
Продолжительность: 01:39:50
Перевод: Профессиональный (двухголосый закадровый) - Film Prestige
+ Профессиональный (двухголосый закадровый) - DVD Classic / New Dream
+ Профессиональный (двухголосый закадровый) - Светла
+ Профессиональный (многоголосый закадровый) - Позитив
Субтитры: Russian, English(Full, SDH)
Оригинальная аудиодорожка: английский-Режиссер: Альфред Хичкок / Alfred Hitchcock-В ролях: Чарльз Лотон, Хорас Ходжес, Морин О’Хара, Хэй Питри, Фредерик Пайпер, Эмлин Уильямс, Херберт Ломас, Клер Грит, Уильям Дэвлин, Джинн Де Ксалис-Описание: Мэри, осиротев, приезжает на побережье Корнуолла к своим дяде и тётке, содержащим таверну «Ямайку». Вскоре Мэри понимает, что таверна является базой для банды, грабящей суда, разбившиеся о скалистый берег. Жизни сироты угрожает опасность, однако среди головорезов есть человек, готовый помочь девушке.-Релиз:
by delia-Качество видео: BDRip | SbR
Формат видео: MKV
Видео: 986x720 at 23.976 fps, x264@L4.1, ~11500 kbps avg
Аудио 1: Russian: 48 kHz, AC3, 2/0 (L,R) ch, ~192 kbps avg |Двухголосый закадровый, Film Prestige|
Аудио 2: Russian: 48 kHz, AC3, 2/0 (L,R) ch, ~192 kbps avg |Двухголосый закадровый, DVD Classic / New Dream|
Аудио 3: Russian: 48 kHz, AC3, 2/0 (L,R) ch, ~192 kbps avg |Двухголосый закадровый,Светла|
Аудио 4: Russian: 48 kHz, AC3, 2/0 (L,R) ch, ~192 kbps avg |Многоголосый закадровый, Позитив|
Аудио 5: English: 48 kHz/16-bit, FLAC 2.0, ~366 kbps avg
Аудио 6: English: 48 kHz, AAC 2.0, ~76 kbps avg |Одноголосый закадровый|- -

Доп. инфо

  • Сохранены оригинальные главы как на Blu-ray.
  • За ремукс спасибо AlekceyR76

MediaInfo

Код:
Format                      : Matroska
Format version              : Version 4 / Version 2
File size                   : 8.86 GiB
Duration                    : 1h 39mn
Overall bit rate mode       : Variable
Overall bit rate            : 12.7 Mbps
Encoded date                : UTC 2016-08-12 16:57:42
Writing application         : mkvmerge v8.3.0 ('Over the Horizon') 64bit
Writing library             : libebml v1.3.1 + libmatroska v1.4.2
Cover                       : Yes
Attachments                 : cover.jpg
Video
ID                          : 1
Format                      : AVC
Format/Info                 : Advanced Video Codec
Format profile              : High@L4.1
Format settings, CABAC      : Yes
Format settings, ReFrames   : 11 frames
Codec ID                    : V_MPEG4/ISO/AVC
Duration                    : 1h 39mn
Bit rate                    : 11.5 Mbps
Width                       : 986 pixels
Height                      : 720 pixels
Display aspect ratio        : 4:3
Frame rate mode             : Constant
Frame rate                  : 23.976 (23976/1000) fps
Color space                 : YUV
Chroma subsampling          : 4:2:0
Bit depth                   : 8 bits
Scan type                   : Progressive
Bits/(Pixel*Frame)          : 0.676
Stream size                 : 8.02 GiB (91%)
Writing library             : x264 core 148 r2705+54 9f484c1 t_mod_Custom [8-bit@all X86_64]
Encoding settings           : cabac=1 / ref=11 / deblock=1:-3:-3 / analyse=0x3:0x133 / me=umh / subme=10 / psy=1 / fade_compensate=0.00 / psy_rd=0.90:0.05 / mixed_ref=1 / me_range=24 / chroma_me=1 / trellis=2 / 8x8dct=1 / cqm=0 / deadzone=21,11 / fast_pskip=0 / chroma_qp_offset=-3 / threads=6 / lookahead_threads=1 / sliced_threads=0 / nr=0 / decimate=1 / interlaced=0 / bluray_compat=0 / constrained_intra=0 / fgo=0 / bframes=8 / b_pyramid=2 / b_adapt=2 / b_bias=0 / direct=3 / weightb=1 / open_gop=0 / weightp=2 / keyint=250 / keyint_min=23 / scenecut=40 / intra_refresh=0 / rc=2pass / mbtree=0 / bitrate=11500 / ratetol=1.0 / qcomp=0.70 / qpmin=0:0:0 / qpmax=69:69:69 / qpstep=4 / cplxblur=20.0 / qblur=0.5 / ip_ratio=1.30 / pb_ratio=1.20 / aq=1:0.65 / aq-sensitivity=10.00 / aq-factor=1.00:1.00:1.00 / aq2=1:0.60 / aq2-sensitivity=15.00 / aq2-factor=1.00:1.00:1.00 / aq3=1:[0.50:0.50]:[0.50:0.50]:[0.50:0.50]:[0.50:0.50] / aq3-sensitivity=10.00 / aq3-factor=[1.00:1.00]:[1.00:1.00]:[1.00:1.00] / aq3-boundary=192:64:24
Language                    : English
Default                     : Yes
Forced                      : No
Color range                 : Limited
Matrix coefficients         : BT.709
Audio #1
ID                          : 2
Format                      : AC-3
Format/Info                 : Audio Coding 3
Mode extension              : CM (complete main)
Format settings, Endianness : Big
Codec ID                    : A_AC3
Duration                    : 1h 39mn
Bit rate mode               : Constant
Bit rate                    : 192 Kbps
Channel(s)                  : 2 channels
Channel positions           : Front: L R
Sampling rate               : 48.0 KHz
Frame rate                  : 31.250 fps (1536 spf)
Compression mode            : Lossy
Stream size                 : 137 MiB (2%)
Title                       : Двухголосый закадровый "Film Prestige"
Language                    : Russian
Default                     : Yes
Forced                      : No
Audio #2
ID                          : 3
Format                      : AC-3
Format/Info                 : Audio Coding 3
Mode extension              : CM (complete main)
Format settings, Endianness : Big
Codec ID                    : A_AC3
Duration                    : 1h 39mn
Bit rate mode               : Constant
Bit rate                    : 192 Kbps
Channel(s)                  : 2 channels
Channel positions           : Front: L R
Sampling rate               : 48.0 KHz
Frame rate                  : 31.250 fps (1536 spf)
Compression mode            : Lossy
Stream size                 : 137 MiB (2%)
Title                       : Двухголосый закадровый - "DVD Classic / New Dream"
Language                    : Russian
Default                     : No
Forced                      : No
Audio #3
ID                          : 4
Format                      : AC-3
Format/Info                 : Audio Coding 3
Mode extension              : CM (complete main)
Format settings, Endianness : Big
Codec ID                    : A_AC3
Duration                    : 1h 39mn
Bit rate mode               : Constant
Bit rate                    : 192 Kbps
Channel(s)                  : 2 channels
Channel positions           : Front: L R
Sampling rate               : 48.0 KHz
Frame rate                  : 31.250 fps (1536 spf)
Compression mode            : Lossy
Stream size                 : 137 MiB (2%)
Title                       : Двухголосый закадровый - "Светла"
Language                    : Russian
Default                     : No
Forced                      : No
Audio #4
ID                          : 5
Format                      : AC-3
Format/Info                 : Audio Coding 3
Mode extension              : CM (complete main)
Format settings, Endianness : Big
Codec ID                    : A_AC3
Duration                    : 1h 39mn
Bit rate mode               : Constant
Bit rate                    : 192 Kbps
Channel(s)                  : 2 channels
Channel positions           : Front: L R
Sampling rate               : 48.0 KHz
Frame rate                  : 31.250 fps (1536 spf)
Compression mode            : Lossy
Stream size                 : 137 MiB (2%)
Title                       : Многоголосый закадровый - Позитив
Language                    : Russian
Default                     : No
Forced                      : No
Audio #5
ID                          : 6
Format                      : FLAC
Format/Info                 : Free Lossless Audio Codec
Codec ID                    : A_FLAC
Duration                    : 1h 39mn
Bit rate mode               : Variable
Bit rate                    : 366 Kbps
Channel(s)                  : 2 channels
Channel positions           : Front: L R
Sampling rate               : 48.0 KHz
Frame rate                  : 11.719 fps (4096 spf)
Bit depth                   : 16 bits
Stream size                 : 261 MiB (3%)
Writing library             : libFLAC 1.2.1 (UTC 2007-09-17)
Language                    : English
Default                     : No
Forced                      : No
Audio #6
ID                          : 7
Format                      : AAC
Format/Info                 : Advanced Audio Codec
Format profile              : LC
Codec ID                    : A_AAC
Duration                    : 1h 39mn
Bit rate                    : 61.7 Kbps
Channel(s)                  : 2 channels
Channel positions           : Front: L R
Sampling rate               : 48.0 KHz
Frame rate                  : 46.875 fps (1024 spf)
Compression mode            : Lossy
Delay relative to video     : 9ms
Stream size                 : 44.1 MiB (0%)
Title                       : Комментарии
Language                    : English
Default                     : No
Forced                      : No
Text #1
ID                          : 8
Format                      : UTF-8
Codec ID                    : S_TEXT/UTF8
Codec ID/Info               : UTF-8 Plain Text
Duration                    : 1h 38mn
Bit rate                    : 103 bps
Count of elements           : 1105
Stream size                 : 74.9 KiB (0%)
Language                    : Russian
Default                     : No
Forced                      : No
Text #2
ID                          : 9
Format                      : UTF-8
Codec ID                    : S_TEXT/UTF8
Codec ID/Info               : UTF-8 Plain Text
Duration                    : 1h 34mn
Bit rate                    : 75 bps
Count of elements           : 1401
Stream size                 : 52.2 KiB (0%)
Language                    : English
Default                     : No
Forced                      : No
Text #3
ID                          : 10
Format                      : UTF-8
Codec ID                    : S_TEXT/UTF8
Codec ID/Info               : UTF-8 Plain Text
Duration                    : 1h 35mn
Bit rate                    : 76 bps
Count of elements           : 1456
Stream size                 : 53.8 KiB (0%)
Title                       : SDH
Language                    : English
Default                     : No
Forced                      : No
Menu
00:00:00.000                : en:00:00:00.000
00:09:59.348                : en:00:09:59.348
00:20:24.765                : en:00:20:24.765
00:30:26.407                : en:00:30:26.407
00:40:58.164                : en:00:40:58.164
00:51:04.895                : en:00:51:04.895
01:00:31.502                : en:01:00:31.502
01:12:58.957                : en:01:12:58.957
01:22:24.731                : en:01:22:24.731
01:31:29.317                : en:01:31:29.317

Скриншоты


_________________
Показать сообщения:    

Текущее время: Сегодня 04:53

Часовой пояс: GMT



Вы не можете начинать темы
Вы не можете отвечать на сообщения
Вы не можете редактировать свои сообщения
Вы не можете удалять свои сообщения
Вы не можете голосовать в опросах
Вы не можете прикреплять файлы к сообщениям
Вы не можете скачивать файлы