Важное объявление!
У Нас Все раздачи мультитрекерные, при нуле пиров в релизах, можете смело вставать на закачку!
 
Автор Сообщение

HUNTER

Стаж:
4 года 6 месяцев
Сообщений:
60975

Репутация: 101

[+] [-]
Вне форума [Профиль] [ЛС]

Сaмолеты: Огoнь и вoда / Plаnes Firе and Rescuе-
Страна: США
Жанр: Приключения, семейный
Продолжительность: 01:23:38
Год выпуска: 2014
Перевод: Профессиональный (дублированный) iTunes
Русские субтитры: нет
Режиссёр: Рoберт Гaннавей / Rоberts Gannawаy
Роли озвучивали: Дейн Кук, Эд Харрис, Джули Боуэн, Кертис Армстронг, Джон Майкл Хиггинс, Хэл Холбрук, Уэс Стьюди, Брэд Гэррет, Тери Хэтчер, Стейси Кич-ОписаниеСамолетик Дасти, который стал уже легендой воздушных гонок, вскоре узнает, что его двигатель сильно повреждён, и он никогда не может больше участвовать в скоростных воздушных гонках. Дасти ищет себе новое занятие и знакомится с мужественной пожарно-спасательной командой, которой руководит ветеран авиации вертолёт по имени Ренждер. Узнав, насколько тяжела и опасна работа пожарной авиации, Дасти поймёт, что такое настоящий героизм и самоотдача, и сам захочет стать спасателем.-Семпл

IMDb: 5.80 (4490)
Качество: BDRip-AVC Planes.2014.BDRemux.(1080p
Формат: MKV
Видео: AVC 2656 Kbps 1184 x 496 (2.387) 23.976 fps
Аудио: AC-3 384 Kbps 6 channels, 48.0 KHz Rus DUB iTunes
Аудио 2: AC-3 384 Kbps 6 channels, 48.0 KHz Eng
Субтитры: Eng SRT

MI | Log

Log
x264 [info]: frame I:1083 Avg QP:13.69 size:123085
x264 [info]: frame P:32865 Avg QP:16.11 size: 27202
x264 [info]: frame B:86376 Avg QP:18.90 size: 7883
x264 [info]: consecutive B-frames: 4.2% 6.8% 16.9% 30.9% 18.6% 16.3% 2.8% 1.5% 0.6% 0.4% 0.2% 0.2% 0.5%
x264 [info]: mb I I16..4: 9.4% 53.5% 37.2%
x264 [info]: mb P I16..4: 1.1% 12.9% 2.1% P16..4: 21.2% 23.1% 12.1% 3.5% 0.7% skip:23.2%
x264 [info]: mb B I16..4: 0.2% 1.6% 0.2% B16..8: 23.5% 16.5% 3.3% direct: 5.2% skip:49.6% L0:37.5% L1:44.0% BI:18.4%
x264 [info]: 8x8 transform intra:76.0% inter:47.9%
x264 [info]: coded y,uvDC,uvAC intra: 86.3% 91.6% 78.1% inter: 18.3% 18.2% 8.7%
x264 [info]: i16 v,h,dc,p: 11% 15% 7% 67%
x264 [info]: i8 v,h,dc,ddl,ddr,vr,hd,vl,hu: 9% 15% 10% 8% 10% 9% 13% 10% 17%
x264 [info]: i4 v,h,dc,ddl,ddr,vr,hd,vl,hu: 10% 21% 6% 7% 11% 10% 13% 8% 14%
x264 [info]: i8c dc,h,v,p: 40% 31% 14% 15%
x264 [info]: Weighted P-Frames: Y:4.7% UV:3.4%
x264 [info]: ref P L0: 57.4% 11.2% 13.4% 5.1% 3.4% 2.8% 1.9% 1.2% 0.9% 0.9% 0.7% 0.8% 0.2% 0.0%
x264 [info]: ref B L0: 78.5% 9.3% 5.3% 1.9% 1.8% 1.0% 0.8% 0.5% 0.5% 0.3% 0.2%
x264 [info]: ref B L1: 93.0% 7.0%
x264 [info]: kb/s:2723.01
x264 [total]: encoded 120324 frames, 10.50 fps, 2723.01 kb/s, duration 3:10:56.01
Format                                   : MatroskaFormat version                           : Version 4 / Version 2File size                                : 2.04 GiBDuration                                 : 1h 23mnOverall bit rate                         : 3 493 KbpsEncoded date                             : UTC 2014-10-26 16:11:49Writing application                      : mkvmerge v6.7.0 ('Back to the Ground') 32bit built on Jan  8 2014 15:03:17Writing library                          : libebml v1.3.0 + libmatroska v1.4.1
VideoID : 1Format : AVCFormat/Info : Advanced Video CodecFormat profile : High@L4.1Format settings, CABAC : YesFormat settings, ReFrames : 12 framesCodec ID : V_MPEG4/ISO/AVCDuration : 1h 23mnBit rate : 2 656 KbpsWidth : 1 184 pixelsHeight : 496 pixelsDisplay aspect ratio : 2.40:1Frame rate mode : ConstantFrame rate : 23.976 fpsColor space : YUVChroma subsampling : 4:2:0Bit depth : 8 bitsScan type : ProgressiveBits/(Pixel*Frame) : 0.189Stream size : 1.55 GiB (76%)Writing library : x264 core 142 r2453kMod ea0ca51Encoding settings : cabac=1 / ref=12 / deblock=1:-2:-2 / analyse=0x3:0x133 / me=umh / subme=11 / psy=1 / fade_compensate=0.00 / psy_rd=1.00:0.05 / mixed_ref=1 / me_range=32 / chroma_me=1 / trellis=2 / 8x8dct=1 / cqm=0 / deadzone=21,11 / fast_pskip=0 / chroma_qp_offset=-3 / threads=12 / lookahead_threads=3 / sliced_threads=0 / nr=0 / decimate=1 / interlaced=0 / bluray_compat=0 / constrained_intra=0 / fgo=0 / bframes=12 / b_pyramid=2 / b_adapt=2 / b_bias=0 / direct=1 / weightb=1 / open_gop=0 / weightp=2 / keyint=250 / keyint_min=23 / scenecut=40 / intra_refresh=0 / rc_lookahead=60 / rc=crf / mbtree=0 / crf=17.0000 / qcomp=0.60 / qpmin=0 / qpmax=69 / qpstep=4 / vbv_maxrate=25000 / vbv_bufsize=50000 / crf_max=0.0 / nal_hrd=none / filler=0 / ip_ratio=1.40 / pb_ratio=1.30 / aq=3:0.90Language : EnglishDefault : YesForced : No
Audio #1ID : 2Format : AC-3Format/Info : Audio Coding 3Mode extension : CM (complete main)Format settings, Endianness : BigCodec ID : A_AC3Duration : 1h 23mnBit rate mode : ConstantBit rate : 384 KbpsChannel(s) : 6 channelsChannel positions : Front: L C R, Side: L R, LFESampling rate : 48.0 KHzBit depth : 16 bitsCompression mode : LossyStream size : 230 MiB (11%)Title : Dub iTunesLanguage : RussianDefault : YesForced : No
Audio #2ID : 3Format : AC-3Format/Info : Audio Coding 3Mode extension : CM (complete main)Format settings, Endianness : BigCodec ID : A_AC3Duration : 1h 23mnBit rate mode : ConstantBit rate : 384 KbpsChannel(s) : 6 channelsChannel positions : Front: L C R, Side: L R, LFESampling rate : 48.0 KHzBit depth : 16 bitsCompression mode : LossyStream size : 230 MiB (11%)Title : OriginalLanguage : EnglishDefault : NoForced : No
TextID : 4Format : UTF-8Codec ID : S_TEXT/UTF8Codec ID/Info : UTF-8 Plain TextLanguage : EnglishDefault : NoForced : No
Menu00:00:00.000 : en:Chapter 0100:03:27.790 : en:Chapter 0200:07:48.593 : en:Chapter 0300:12:36.005 : en:Chapter 0400:17:38.849 : en:Chapter 0500:22:55.165 : en:Chapter 0600:27:45.288 : en:Chapter 0700:32:37.205 : en:Chapter 0800:35:24.789 : en:Chapter 0900:38:31.017 : en:Chapter 1000:41:38.287 : en:Chapter 1100:47:21.046 : en:Chapter 1200:55:00.714 : en:Chapter 1300:57:29.028 : en:Chapter 1401:00:33.880 : en:Chapter 1501:05:22.710 : en:Chapter 1601:09:07.685 : en:Chapter 1701:13:55.264 : en:Chapter 1801:23:38.263 : en:Chapter 19

Скриншоты

Source

_________________
Показать сообщения:    

Текущее время: Сегодня 15:49

Часовой пояс: GMT



Вы не можете начинать темы
Вы не можете отвечать на сообщения
Вы не можете редактировать свои сообщения
Вы не можете удалять свои сообщения
Вы не можете голосовать в опросах
Вы не можете прикреплять файлы к сообщениям
Вы не можете скачивать файлы
Наши партнеры: интернет магазин Ивановского трикотажа textilla.ru