Важное объявление!
У Нас Все раздачи мультитрекерные, при нуле пиров в релизах, можете смело вставать на закачку!
 
Автор Сообщение

HUNTER

Стаж:
4 года 6 месяцев
Сообщений:
60950

Репутация: 101

[+] [-]
Вне форума [Профиль] [ЛС]

С 8 марта, мужчины!«Она знает, о чём мечтают мужчины»-
Страна: Россия, Беларусь
Студии: Вольга, Москит, Беларусьфильм, Фонд кино
Жанр: Мелодрама, комедия
Год выпуска: 2014-Дата мировой премьеры: 6 марта 2014
Дата российской премьеры: 6 марта 2014, «Вольга»
Дата выхода DVD релиза: 13 мая 2014, «Lizard Cinema Trade»-Продолжительность: 01:38:33
Перевод: Оригинал [Лицензия]
Cубтитры: Нет
Оригинальная аудиодорожка: Русская-Режиссер: Артем Аксененко
Продюсер: Анна Крутова
Актеры: Мария Берсенева, Максим Виторган, Светлана Иванова, Михаил Башкатов, Вера Алентова, Константин Лавиш, Ксения Бородина, Владислав Лисовец, Стивен Нельсон, Алексей Климушкин-Описание:
Анна Беркутова — блондинка в броне из мини-юбки и глубокого декольте. Ее оружие — красота, ум и абсолютная уверенность в том, что она знает мужчин. Она ведет важный проект в Сколково и собирается замуж за богатого иностранца. Но в день ее рождения, 8 марта, ее четкая, как финансовый отчет, судьба меняется: Аню бросает жених, ее проект крадут из Сколково, а сама она начинает слышать мысли мужчин. Эта способность сначала доводит ее до отчаяния, а затем открывает широкие возможности…- -Качество: DVD5 (сжатый)
Формат: DVD-Video
Видео: MPEG-2, 720x576@1024x576 (PAL 16:9), ~5900 Кбит/сек
Аудио: AC3 5.1, 448 Кбит/сек [Русский]

DVDInfo

Title: С 8 марта, мужчины! (2014) DVD5
Size: 4.37 Gb ( 4 586 024,00 KBytes ) - DVD-5
Enabled regions: 1, 2, 3, 4, 5, 6, 7, 8
VTS_01 :
Play Length: 00:00:00+{00:00:00}+{00:00:00}
Video: PAL 4:3 (720x576) VBR
Audio:
Russian (Dolby AC3, 6 ch)
English (Dolby AC3, 6 ch)
English (Dolby AC3, 6 ch)
VTS_02 :
Play Length: 01:38:33
Video: PAL 16:9 (720x576) VBR, Auto Pan&Scan, Auto Letterboxed
Audio:
Russian (Dolby AC3, 6 ch)
* Menus Information *
VIDEO_TS Menu
Video:
NTSC 4:3 (720x480) VBR
Auto Pan&Scan, Auto Letterboxed
English Language Unit :
Title Menu
VTS_01 Menu
Video:
PAL 16:9 (720x576) VBR
Auto Letterboxed
Audio:
Not specified (Dolby AC3, 2 ch)
English Language Unit :
Root Menu
Chapter (PTT) Menu
VTS_02 Menu
Video:
PAL 4:3 (720x576) VBR
English Language Unit :
Root Menu
Audio Menu
Chapter (PTT) Menu

MediaInfo

Общее
Полное имя : G:\Видео\С 8 марта, мужчины! (2014) DVD5\VIDEO_TS\VTS_02_3.VOB
Формат : MPEG-PS
Размер файла : 1024 Мбайт
Продолжительность : 22 м.
Режим общего битрейта : Переменный
Общий поток : 6466 Кбит/сек
Видео
Идентификатор : 224 (0xE0)
Формат : MPEG Video
Версия формата : Version 2
Профиль формата : Main@Main
Параметр BVOP формата : Да
Параметр матрицы формата : Выборочная
Параметр GOP формата : Variable
Продолжительность : 22 м.
Вид битрейта : Переменный
Битрейт : 5889 Кбит/сек
Максимальный битрейт : 8714 Кбит/сек
Ширина : 720 пикселей
Высота : 576 пикселей
Соотношение сторон : 16:9
Частота кадров : 25,000 кадров/сек
Стандарт вещания : PAL
Цветовое пространство : YUV
Субдискретизация насыщенности : 4:2:0
Битовая глубина : 8 бит
Тип развёртки : Прогрессивная
Порядок развёртки : Нижнее поле первое
Метод сжатия : С потерями
Бит/(Пиксели*Кадры) : 0.568
Временной код первого кадра : 00:45:17:10
Оригинал временного кода : Group of pictures header
Размер потока : 933 Мбайт (91%)
Аудио
Идентификатор : 189 (0xBD)-128 (0x80)
Формат : AC-3
Формат/Информация : Audio Coding 3
Расширение режима : CM (complete main)
Параметр Endianness формата : Big
Режим смешивания : DVD-Video
Продолжительность : 22 м.
Вид битрейта : Постоянный
Битрейт : 448 Кбит/сек
Каналы : 6 каналов
Расположение каналов : Front: L C R, Side: L R, LFE
Частота : 48,0 КГц
Частота кадров : 31,250 кадров/сек (1536 spf)
Метод сжатия : С потерями
Задержка видео : -296 мс.
Размер потока : 70,9 Мбайт (7%)
Меню

Доп. информация

Исходник: [url=viewtopic.php?t=5280809]http://rutracker.org/forum/viewtopic.php?t=5280809[/url]
Удалены: предупреждающая надпись, DTS дорога. (в меню кнопки затёрты).
Команды диска переписаны заново, оставлено два VTS.
Видео сжато на 10,5%.
Меню: статичное, недействующие кнопки затерты и закрыты.
Обработка и сжатие: DVD ReMake Pro + DVD Rebuilder + CCE SP2 [7 проходов] + Работа с меню (Adobe PhotoShop и MuxMan).
Скриншот финального проекта:

Лог кодирования DVD Rebuilder
-----------------
[20:50:40] Phase I, PREPARATION started.
- DVD-RB v1.28.2
- AVISYNTH 2.6.0.6
- CCE 1.0.1.9 encoder selected.
- Source: S 8 MARTA, MUZHCHINY! (2014) DV
- VTS_02: 2 492 802 sectors.
-- Scanning and writing .D2V & .AVS files
-- Processed 147 845 frames.
-- Building .AVS and .ECL files
- Reduction Level for DVD-5: 89,5%
- Overall Bitrate : 5 684Kbs
- Space for Video : 4 103 628KB
- Redistributing using Base_Q: 18
- HIGH/LOW/TYPICAL Bitrates: 6 329/4 590/5 684 Kbs
[20:54:17] Phase I, PREPARATION completed in 4 minutes.
- WARNING: Viewer/Editor settings are over target.
[20:55:19] Phase II ENCODING started
- Creating M2V for VTS_02 segment 0
- Creating M2V for VTS_02 segment 1
- Creating M2V for VTS_02 segment 2
- Creating M2V for VTS_02 segment 3
- Creating M2V for VTS_02 segment 4
- Creating M2V for VTS_02 segment 5
- Creating M2V for VTS_02 segment 6
- Creating M2V for VTS_02 segment 7
- Creating M2V for VTS_02 segment 8
- Creating M2V for VTS_02 segment 9
- Creating M2V for VTS_02 segment 10
- Creating M2V for VTS_02 segment 11
[22:03:03] Phase II ENCODING completed in 68 minutes.
- WARNING: Viewer/Editor settings are over target.
[22:03:21] Phase III, REBUILD started.
- Copying IFO, BUP, and unaltered files...
- Processing VTS_02
- Reading/processing TMAP table...
- Rebuilding seg 0 VOBID 1 CELLID 1
- Rebuilding seg 1 VOBID 1 CELLID 2
- Rebuilding seg 2 VOBID 1 CELLID 3
- Rebuilding seg 3 VOBID 1 CELLID 4
- Rebuilding seg 4 VOBID 1 CELLID 5
- Rebuilding seg 5 VOBID 1 CELLID 6
- Rebuilding seg 6 VOBID 1 CELLID 7
- Rebuilding seg 7 VOBID 1 CELLID 8
- Rebuilding seg 8 VOBID 1 CELLID 9
- Rebuilding seg 9 VOBID 1 CELLID 10
- Rebuilding seg 10 VOBID 1 CELLID 11
- Rebuilding seg 11 VOBID 1 CELLID 12
- Updating NAVPACKS for VOBID_01
- Updated VTS_C_ADT.
- Updated VTS_VOBU_ADMAP.
- Updated IFO: VTS_02_0.IFO
- Updating TMAP table...
- Correcting VTS Sectors...
[22:19:33] Phase III, REBUILD completed in 16 minutes.
Done.
-

Скриншоты меню

Скриншоты фильма


_________________
Показать сообщения:    

Текущее время: Сегодня 05:36

Часовой пояс: GMT



Вы не можете начинать темы
Вы не можете отвечать на сообщения
Вы не можете редактировать свои сообщения
Вы не можете удалять свои сообщения
Вы не можете голосовать в опросах
Вы не можете прикреплять файлы к сообщениям
Вы не можете скачивать файлы
Наши партнеры: интернет магазин Ивановского трикотажа textilla.ru