Ивановский Торрент трекер
Яндекс.Погода
 

[Цитировать]
HUNTER

С террасы / From the Terrace
Страна: США
Жанр: драма, мелодрама
Год выпуска: 1960
Продолжительность: 02:24:04
Перевод 1: Профессиональный (многоголосый закадровый) Первый канал
Перевод 2: Профессиональный (двухголосый закадровый)
Cубтитры: английские
Оригинальная аудиодорожка: английский
Режиссер: Марк Робсон / Mark Robson
В ролях: Пол Ньюман, Джоэнн Вудворд, Мирна Лой, Ина Балин, Леон Эймс, Элизабет Аллен, Барбара Иден, Джордж Гриззард, Патрик О’Нил, Феликс Эйлмер
Описание: История погони человека за успехом и богатством. Герой взбирается по лестнице, ведущей на вершины Уолл Стрита, пренебрегает женой, жертвует своей цельностью, но в конце, по законам американской попкультуры, переживает болезненное прозрение, так называемый «момент истины».
Доп. информация:


За перевод Первого канала спасибо StudioRAK и palmeiras
За двухголоску спасибо Austin-ozon (к сожалению, дорога крайне низкого качества)
Сэмпл: http://sendfile.su/1034681
Тип релиза: WEB-DL 720p
Контейнер: MKV
Видео: AVC, 1280x536, L3.1, 23.976fps, 4114kbps
Аудио 1: Russian: AC3, 48000Hz, 2ch, 192kbps - MVO
Аудио 2: Russian: AC3, 48000Hz, 2ch, 192kbps - DVO
Аудио 3: English: AC3, 48000Hz, 2ch, 192kbps - DVD
Аудио 4: English: AAC, 48000Hz, 2ch, 164kbps - WEB-DL
Формат субтитров: softsub (SRT)

MediaInfo

Общее
Уникальный идентификатор : 204647473335783238406263652301806940378 (0x99F5AB7111DA93B5B5E20498D9C2B0DA)
Полное имя : T:\С террасы (From the Terrace) (WEB-DL 720p).mkv
Формат : Matroska
Версия формата : Version 4 / Version 2
Размер файла : 4,88 Гбайт
Продолжительность : 2 ч. 24 м.
Общий поток : 4854 Кбит/сек
Дата кодирования : UTC 2014-10-13 05:47:57
Программа кодирования : mkvmerge v6.9.1 ('Blue Panther') 64bit built on Apr 18 2014 18:23:38
Библиотека кодирования : libebml v1.3.0 + libmatroska v1.4.1
Видео
Идентификатор : 1
Формат : AVC
Формат/Информация : Advanced Video Codec
Профиль формата : Main@L3.1
Параметр CABAC формата : Нет
Параметр ReFrames формата : 2 кадра
Идентификатор кодека : V_MPEG4/ISO/AVC
Продолжительность : 2 ч. 24 м.
Ширина : 1280 пикселей
Высота : 536 пикселей
Соотношение сторон : 2,40:1
Режим частоты кадров : Постоянный
Частота кадров : 23,976 кадра/сек
Цветовое пространство : YUV
Субдискретизация насыщенности : 4:2:0
Битовая глубина : 8 бит
Тип развёртки : Прогрессивная
Язык : English
Default : Да
Forced : Нет
Основные цвета : BT.709
Характеристики трансфера : BT.709
Коэффициенты матрицы : BT.709
Аудио #1
Идентификатор : 2
Формат : AC-3
Формат/Информация : Audio Coding 3
Расширение режима : CM (complete main)
Параметр Endianness формата : Big
Идентификатор кодека : A_AC3
Продолжительность : 2 ч. 24 м.
Вид битрейта : Постоянный
Битрейт : 192 Кбит/сек
Каналы : 2 канала
Расположение каналов : Front: L R
Частота : 48,0 КГц
Битовая глубина : 16 бит
Метод сжатия : С потерями
Размер потока : 198 Мбайт (4%)
Заголовок : Первый канал
Язык : Russian
Default : Нет
Forced : Нет
Аудио #2
Идентификатор : 3
Формат : AC-3
Формат/Информация : Audio Coding 3
Расширение режима : CM (complete main)
Параметр Endianness формата : Big
Идентификатор кодека : A_AC3
Продолжительность : 2 ч. 24 м.
Вид битрейта : Постоянный
Битрейт : 192 Кбит/сек
Каналы : 2 канала
Расположение каналов : Front: L R
Частота : 48,0 КГц
Битовая глубина : 16 бит
Метод сжатия : С потерями
Размер потока : 198 Мбайт (4%)
Заголовок : DVO
Язык : Russian
Default : Нет
Forced : Нет
Аудио #3
Идентификатор : 4
Формат : AC-3
Формат/Информация : Audio Coding 3
Расширение режима : CM (complete main)
Параметр Endianness формата : Big
Идентификатор кодека : A_AC3
Продолжительность : 2 ч. 24 м.
Вид битрейта : Постоянный
Битрейт : 192 Кбит/сек
Каналы : 2 канала
Расположение каналов : Front: L R
Частота : 48,0 КГц
Битовая глубина : 16 бит
Метод сжатия : С потерями
Размер потока : 198 Мбайт (4%)
Заголовок : DVD
Язык : English
Default : Нет
Forced : Нет
Аудио #4
Идентификатор : 5
Формат : AAC
Формат/Информация : Advanced Audio Codec
Профиль формата : LC
Идентификатор кодека : A_AAC
Продолжительность : 2 ч. 24 м.
Каналы : 2 канала
Расположение каналов : Front: L R
Частота : 48,0 КГц
Метод сжатия : С потерями
Заголовок : WEB-DL
Язык : English
Default : Нет
Forced : Нет
Текст
Идентификатор : 6
Формат : UTF-8
Идентификатор кодека : S_TEXT/UTF8
Идентификатор кодека/Информация : UTF-8 Plain Text
Язык : English
Default : Нет
Forced : Нет
Меню
00:00:00.000 : en:Main Titles
00:01:46.000 : en:Dead Drunk
00:03:42.000 : en:The Steel Magnate
00:07:24.000 : en:The Son Who Didn't Die
00:11:07.000 : en:Making Allowances
00:15:14.000 : en:The Argument Upstairs
00:18:13.000 : en:The Other Man
00:19:06.000 : en:The Boss's Son
00:22:32.000 : en:A Hopeless Drunkard
00:26:55.000 : en:The Thorntons' Party
00:32:26.000 : en:Mary St. John
00:36:06.000 : en:Mary's New Lover
00:38:31.000 : en:The St. Johns
00:44:37.000 : en:Five Hundred Dollars
00:46:46.000 : en:Samuel's Confession
00:49:37.000 : en:A Transformed Life
00:51:32.000 : en:Wedding Day
00:53:35.000 : en:Bad News
00:56:19.000 : en:Woman-to-Woman
00:58:49.000 : en:Serious Talk
01:01:34.000 : en:Still in Love
01:04:47.000 : en:Sandy's Savior
01:06:36.000 : en:The Guest of Honor
01:10:46.000 : en:MacHardie's Offer
01:12:31.000 : en:The Career Man
01:20:22.000 : en:Stuck in Mountain City
01:25:15.000 : en:Natalie
01:33:22.000 : en:Lost in the Desert
01:37:05.000 : en:One Last Time
01:41:43.000 : en:Trouble in Your Home
01:48:32.000 : en:The Nassau Investigation
01:52:34.000 : en:Benziger's Daughter
01:57:38.000 : en:Please Want Me
01:59:27.000 : en:Nothing to Offer
02:03:01.000 : en:On Thin Ice
02:04:30.000 : en:One Memorable Night
02:08:49.000 : en:Final Things
02:11:08.000 : en:It's Gone
02:15:26.000 : en:Alfred's Choice
02:22:39.000 : en:A New Life

Скриншоты

Показать сообщения:    

Текущее время: 18-Окт 01:02

Часовой пояс: UTC - 1


Вы не можете начинать темы
Вы не можете отвечать на сообщения
Вы не можете редактировать свои сообщения
Вы не можете удалять свои сообщения
Вы не можете голосовать в опросах
Вы не можете прикреплять файлы к сообщениям
Вы не можете скачивать файлы

!ВНИМАНИЕ!
Сайт не предоставляет электронные версии произведений, а занимается лишь коллекционированием и каталогизацией ссылок, присылаемых и публикуемых на форуме нашими читателями. Если вы являетесь правообладателем какого-либо представленного материала и не желаете, чтобы ссылка на него находилась в нашем каталоге, свяжитесь с нами, и мы незамедлительно удалим ее. Файлы для обмена на трекере предоставлены пользователями сайта, и администрация не несет ответственности за их содержание. Просьба не заливать файлы, защищенные авторскими правами, а также файлы нелегального содержания!