Ивановский Торрент трекер
Яндекс.Погода
Статистика раздачи
Размер:  2.8 GB   |    Зарегистрирован:  1 год 8 месяцев   |    Скачан:  0 раз

Полного источника не было: Никогда

 
     
 
 
 

[Цитировать]
HUNTER

Сюрприз старины Неда / Поминая Неда / Waking Ned / Waking Ned Devine
Страна: Великобритания, Ирландия, Франция, США
Студия: Bonaparte Films Ltd., Canal+ [fr] и др.
Жанр: комедия
Год выпуска: 1998
Продолжительность: 01:31:21
Перевод: Профессиональный (двухголосый закадровый)
Cубтитры: русские, английские
Оригинальная аудиодорожка: английский
Режиссер: Кирк Джонс / Kirk Jones
В ролях: Иэн Бэннен, Дэвид Келли, Фионнула Флэнаган, Сьюзэн Линч, Джеймс Несбитт, Пол Вон, Адриан Робинсон, Мойра О’Мэлли, Роберт Хикки, Пэдди Уорд
Описание: Джеки О’Ши, житель маленькой ирландской деревушки, узнает, что один из его соседей выиграл в лотерею 7 миллионов фунтов. Счастливчиком оказался Нед Девайн. К сожалению, получить выигрыш будет довольно затруднительно — от радости Нед умер. Джеки и его лучший друг Майкл очень хотят, чтобы Нед поделился с ними своим богатством, во всяком случае, живой Нед поступил бы именно так. Но все оказывается гораздо сложнее, чем могли себе представить два приятеля. Чтобы убедить представителя лотерейной комиссии в том, что Нед Девайн жив, им придется вовлечь в свой план всю деревню…

Sample
Тип релиза: WEB-DL 1080p
Контейнер: MKV
Видео: MPEG4 AVC Video, H264, 16:9, 1918x810, 23.976 fps, 3540 kbps
Аудио: Russian (AC3, 6 ch, 384 kbps, 16 bits, 48.0 KHz) - DVO
Аудио 2: English (AC3, 6 ch, 384 kbps, 16 bits, 48.0 KHz) - оригинал
Формат субтитров: softsub (SRT)

MediaInfo

General
Unique ID : 231614828332597791672363578557814039068 (0xAE3F64B241CA97418BEBCEF83E54621C)
Complete name : E:\Waking Ned Devine 1998 WEB-DL 1080p.mkv
Format : Matroska
Format version : Version 4 / Version 2
File size : 2.80 GiB
Duration : 1h 31mn
Overall bit rate : 4 395 Kbps
Encoded date : UTC 2016-03-21 05:01:47
Writing application : mkvmerge v6.1.0 ('Old Devil') built on Mar 2 2013 14:32:37
Writing library : libebml v1.3.0 + libmatroska v1.4.0
Video
ID : 1
Format : AVC
Format/Info : Advanced Video Codec
Format profile : High@L4.0
Format settings, CABAC : Yes
Format settings, ReFrames : 5 frames
Codec ID : V_MPEG4/ISO/AVC
Duration : 1h 31mn
Bit rate : 3 540 Kbps
Width : 1 918 pixels
Height : 810 pixels
Display aspect ratio : 2.35:1
Frame rate mode : Constant
Frame rate : 23.976 fps
Color space : YUV
Chroma subsampling : 4:2:0
Bit depth : 8 bits
Scan type : Progressive
Bits/(Pixel*Frame) : 0.095
Stream size : 2.26 GiB (81%)
Language : English
Default : Yes
Forced : No
Color primaries : BT.709
Transfer characteristics : BT.709
Matrix coefficients : BT.709
Audio #1
ID : 2
Format : AC-3
Format/Info : Audio Coding 3
Mode extension : CM (complete main)
Format settings, Endianness : Big
Codec ID : A_AC3
Duration : 1h 31mn
Bit rate mode : Constant
Bit rate : 384 Kbps
Channel count : 6 channels
Channel positions : Front: L C R, Side: L R, LFE
Sampling rate : 48.0 KHz
Bit depth : 16 bits
Compression mode : Lossy
Stream size : 251 MiB (9%)
Language : Russian
Default : Yes
Forced : No
Audio #2
ID : 3
Format : AC-3
Format/Info : Audio Coding 3
Mode extension : CM (complete main)
Format settings, Endianness : Big
Codec ID : A_AC3
Duration : 1h 31mn
Bit rate mode : Constant
Bit rate : 384 Kbps
Channel count : 6 channels
Channel positions : Front: L C R, Side: L R, LFE
Sampling rate : 48.0 KHz
Bit depth : 16 bits
Compression mode : Lossy
Stream size : 251 MiB (9%)
Language : English
Default : No
Forced : No
Text #1
ID : 4
Format : UTF-8
Codec ID : S_TEXT/UTF8
Codec ID/Info : UTF-8 Plain Text
Language : Russian
Default : No
Forced : No
Text #2
ID : 5
Format : UTF-8
Codec ID : S_TEXT/UTF8
Codec ID/Info : UTF-8 Plain Text
Language : English
Default : No
Forced : No
Menu
00:00:00.000 : en:Lottery Night
00:04:02.000 : en:Main Titles
00:05:14.000 : en:A Winner in the Village
00:07:57.000 : en:Looking for the Lucky One
00:14:26.000 : en:Pig and Maggie
00:18:33.000 : en:The Chicken Supper Party
00:23:07.000 : en:The Winner
00:25:42.000 : en:A Prayer for Ned
00:27:46.000 : en:Jackie's Vision
00:29:26.000 : en:The Winning Smile
00:40:01.000 : en:Finn's Rival
00:40:13.000 : en:Meeting Ned Devine
00:48:59.000 : en:A Shock to the System
00:53:05.000 : en:Things Get Serious
00:59:43.000 : en:A Nest Egg for Us All
01:02:54.000 : en:A Drink and a Deal
01:08:45.000 : en:The Last Holdout
01:11:12.000 : en:The Funeral
01:15:55.000 : en:Eulogy for a Friend
01:18:43.000 : en:The Check
01:21:16.000 : en:Lizzy's Long Distance Call
01:24:23.000 : en:Ned's Only Heir
01:25:53.000 : en:Spirits to the Sky
01:28:02.000 : en:End Titles

Скриншоты

[iv-torrents.ru].t55455.torrent
Торрент: Зарегистрирован [ 2016-03-22 18:50 ] · E3E73F7363669591138E3C3BE5CF39DC22085B1E

Скачать .torrent

Скачать

14 KB

Статус: проверено
Скачан: 0 раз
Размер: 2.8 GB
terms.php


Показать сообщения:    

Текущее время: 15-Дек 08:34

Часовой пояс: UTC ± 0


Вы не можете начинать темы
Вы не можете отвечать на сообщения
Вы не можете редактировать свои сообщения
Вы не можете удалять свои сообщения
Вы не можете голосовать в опросах
Вы не можете прикреплять файлы к сообщениям
Вы можете скачивать файлы

!ВНИМАНИЕ!
Сайт не предоставляет электронные версии произведений, а занимается лишь коллекционированием и каталогизацией ссылок, присылаемых и публикуемых на форуме нашими читателями. Если вы являетесь правообладателем какого-либо представленного материала и не желаете, чтобы ссылка на него находилась в нашем каталоге, свяжитесь с нами, и мы незамедлительно удалим ее. Файлы для обмена на трекере предоставлены пользователями сайта, и администрация не несет ответственности за их содержание. Просьба не заливать файлы, защищенные авторскими правами, а также файлы нелегального содержания!