Ивановский Торрент трекер
Яндекс.Погода
 

[Цитировать]
димитри37

Сын отца народов
Название: Сын отца народов
Год выпуска: 2013
Производство: Россия, Фаворитфильм, FILM.UA
Жанр: Биография, драма, исторический
Продолжительность: ~ 00:45:00
Субтитры: Нет
Режиссёр: Сергей Гинзбург, Сергей Щербин
В ролях: Гела Месхи, Василий Прокопьев, Анатолий Дзиваев, Сергей Газаров, Надежда Михалкова, Илья Ермолов, Алексей Вертков, Александр Никольский (II), Анатолий Гущин, Евгений Сангаджиев, Кристина Пакарина, Мария Жиганова, Артём Осипов, Светлана Колпакова, Юрий Маслак, Марьяна Спивак, Анна Кирина, Дмитрий Абазовик, Иван Суханов, Максим Сапрыкин (II), Мария Андреева
Описание: Сюжет нового сериала расскажет о трагической судьбе сына вождя народа. Жизнь Василия Сталина изменилась коренным образом после смерти его отца, прославившегося как в России так и за рубежом.
Примечание: Реклама отсуствует

Качество: SATRip
Формат: AVI
Видео кодек: XviD
Аудио кодек: MP3
Видео: XviD, 704x368 (1.91:1), 25 fps, ~1528 kbps avg, 0.24 bit/pixel
Аудио: MP3, 48 kHz, 2 ch, ~128.00 kbps avg

MI

ОбщееПолное имя : C:\Users\Admin\Desktop\Загрузки\Сын отца народов [SATRip]\Syn.otca.narodov.01.2013.SATRip.aviФормат : AVIФормат/Информация : Audio Video InterleaveРазмер файла : 594 МбайтПродолжительность : 49 м.Общий поток : 1667 Кбит/секПрограмма кодирования : VirtualDubMod 1.5.10.2 (build 2540/release)Библиотека кодирования : VirtualDubMod build 2540/release
ВидеоИдентификатор : 0Формат : MPEG-4 VisualПрофиль формата : Advanced Simple@L5Параметр BVOP формата : 2Параметр QPel формата : НетПараметр GMC формата : Без точки переходаПараметр матрицы формата : Default (MPEG)Идентификатор кодека : XVIDИдентификатор кодека/Подсказка : XviDПродолжительность : 49 м.Битрейт : 1529 Кбит/секШирина : 704 пикселяВысота : 368 пикселейСоотношение сторон : 1,913Частота кадров : 25,000 кадров/секЦветовое пространство : YUVСубдискретизация насыщенности : 4:2:0Битовая глубина : 8 битТип развёртки : ПрогрессивнаяМетод сжатия : С потерямиБит/(Пиксели*Кадры) : 0.236Размер потока : 545 Мбайт (92%)Библиотека кодирования : XviD 65
АудиоИдентификатор : 1Формат : MPEG AudioВерсия формата : Version 1Профиль формата : Layer 3Режим : Joint stereoРасширение режима : MS StereoИдентификатор кодека : 55Идентификатор кодека/Подсказка : MP3Продолжительность : 49 м.Вид битрейта : ПостоянныйБитрейт : 128 Кбит/секКаналы : 2 каналаЧастота : 48,0 КГцМетод сжатия : С потерямиРазмер потока : 45,6 Мбайт (8%)Выравнивание : Соединение по промежуткамПродолжительность промежутка : 40 мс. (1,00 видеокадр)Время предзагрузки промежутка : 504 мс.Библиотека кодирования : LAME3.90.3

Скриншоты

Показать сообщения:    

Текущее время: 22-Окт 02:03

Часовой пояс: UTC - 1


Вы не можете начинать темы
Вы не можете отвечать на сообщения
Вы не можете редактировать свои сообщения
Вы не можете удалять свои сообщения
Вы не можете голосовать в опросах
Вы не можете прикреплять файлы к сообщениям
Вы не можете скачивать файлы

!ВНИМАНИЕ!
Сайт не предоставляет электронные версии произведений, а занимается лишь коллекционированием и каталогизацией ссылок, присылаемых и публикуемых на форуме нашими читателями. Если вы являетесь правообладателем какого-либо представленного материала и не желаете, чтобы ссылка на него находилась в нашем каталоге, свяжитесь с нами, и мы незамедлительно удалим ее. Файлы для обмена на трекере предоставлены пользователями сайта, и администрация не несет ответственности за их содержание. Просьба не заливать файлы, защищенные авторскими правами, а также файлы нелегального содержания!