Важное объявление!
У Нас Все раздачи мультитрекерные, при нуле пиров в релизах, можете смело вставать на закачку!
 
Автор Сообщение

HUNTER

Стаж:
4 года 6 месяцев
Сообщений:
60981

Репутация: 101

[+] [-]
Вне форума [Профиль] [ЛС]

Сын Бэтмена / Son of Batman

Год выпуска: 2014
Страна: США
Жанр: Комикс, мультфильм, фантастика, фэнтези, боевик, приключения
Продолжительность: 01:14:10
Перевод: Любительский (многоголосый закадровый) от Kapets's Studios
Русские субтитры: нет
Режиссёр: Этан Сполдинг / Ethan Spaulding
Роли озвучивали: Джейсон О’Мара (Jason O'Mara), Томас Гибсон (Thomas Gibson), Морена Баккарин (Morena Baccarin), Джанкарло Эспозито (Giancarlo Esposito), Дэвид МакКаллум (David McCallum), Ксандер Беркли (Xander Berkeley), Шон Маэр (Sean Maher), Фред Татаскьор (Fred Tatasciore), Брюс Томас (Bruce Thomas), Стюарт Аллан (Stuart Allan) и д.р.
Описание:Рас аль Гул тренирует внука в качестве своего преемника. Но когда предатель захватывает Лигу Ассасинов, Талия с Дэмиеном отправляется к Бэтмену, чтобы попросить помощи и познакомить отца с сыном. Отец - Тёмный Рыцарь, стоящий на страже Готэма. Сын - наследник Рас аль Гула, воспитанный и обученный в Лиге Ассасинов. Вместе им предстоит столкнуться с новым главой Лиги. Вот только один хочет спасти мир, а другой - жаждет лишь мести.--<<Семпл>>--Озвучивали:
TeT_Rec
Katrin Marin
kapets--Качество: HDRip
Формат: AVI
Видео: 720x400 (16:9), 23.976 fps, ~1735 kbps
Аудио: Русский, 48 kHz, AC3 Dolby Digital, 3/2 (L,C,R,l,r) + LFE ch, ~448.00 kbps
Аудио2: Английский, 48 kHz, AC3 Dolby Digital, 3/2 (L,C,R,l,r) + LFE ch, ~448.00 kbps
Субтитры: только английские(отдельно)

Подробные технические данные
GeneralComplete name : D:\Sony Vegas\видео\Son.of.Batman.2014\Son.of.Batman.2014.Rus.Eng.Kapets.s.Studios\Son.of.Batman.2014.Rus.Eng.Kapets.s.Studios.aviFormat : AVIFormat/Info : Audio Video InterleaveFile size : 1.37 GiBDuration : 1h 14mnOverall bit rate : 2 645 KbpsWriting application : VirtualDubMod 1.5.10.2 (build 2540/release)Writing library : VirtualDubMod build 2540/release
VideoID : 0Format : MPEG-4 VisualFormat profile : Advanced Simple@L5Format settings, BVOP : YesFormat settings, QPel : NoFormat settings, GMC : No warppointsFormat settings, Matrix : Default (H.263)Codec ID : XVIDCodec ID/Hint : XviDDuration : 1h 14mnBit rate : 1 735 KbpsWidth : 720 pixelsHeight : 400 pixelsDisplay aspect ratio : 16:9Frame rate : 23.976 fpsColor space : YUVChroma subsampling : 4:2:0Bit depth : 8 bitsScan type : ProgressiveCompression mode : LossyBits/(Pixel*Frame) : 0.251Stream size : 920 MiB (66%)Writing library : XviD 73
Audio #1ID : 1Format : AC-3Format/Info : Audio Coding 3Mode extension : CM (complete main)Format settings, Endianness : BigCodec ID : 2000Duration : 1h 14mnBit rate mode : ConstantBit rate : 448 KbpsChannel count : 6 channelsChannel positions : Front: L C R, Side: L R, LFESampling rate : 48.0 KHzBit depth : 16 bitsCompression mode : LossyStream size : 238 MiB (17%)Alignment : Split accross interleavesInterleave, duration : 42 ms (1.00 video frame)Interleave, preload duration : 500 ms
Audio #2ID : 2Format : AC-3Format/Info : Audio Coding 3Mode extension : CM (complete main)Format settings, Endianness : BigCodec ID : 2000Duration : 1h 14mnBit rate mode : ConstantBit rate : 448 KbpsChannel count : 6 channelsChannel positions : Front: L C R, Side: L R, LFESampling rate : 48.0 KHzBit depth : 16 bitsCompression mode : LossyStream size : 238 MiB (17%)Alignment : Split accross interleavesInterleave, duration : 42 ms (1.00 video frame)Interleave, preload duration : 500 ms
Скриншоты

_________________
Показать сообщения:    

Текущее время: Сегодня 09:45

Часовой пояс: GMT



Вы не можете начинать темы
Вы не можете отвечать на сообщения
Вы не можете редактировать свои сообщения
Вы не можете удалять свои сообщения
Вы не можете голосовать в опросах
Вы не можете прикреплять файлы к сообщениям
Вы не можете скачивать файлы
Наши партнеры: интернет магазин Ивановского трикотажа textilla.ru