Важное объявление!
У Нас Все раздачи мультитрекерные, при нуле пиров в релизах, можете смело вставать на закачку!
 
Автор Сообщение

HUNTER

Стаж:
4 года 11 месяцев
Сообщений:
66039

Репутация: 101

[+] [-]
Вне форума [Профиль] [ЛС]

Сын Бэтмена / Son of Batman

Год выпуска: 2014
Страна: США
Жанр: Комикс, мультфильм, фантастика, фэнтези, боевик, приключения
Продолжительность: 01:14:10
Перевод: Любительский (многоголосый закадровый) от Kapets's Studios
Русские субтитры: нет
Режиссёр: Этан Сполдинг / Ethan Spaulding
Роли озвучивали: Джейсон О’Мара (Jason O'Mara), Томас Гибсон (Thomas Gibson), Морена Баккарин (Morena Baccarin), Джанкарло Эспозито (Giancarlo Esposito), Дэвид МакКаллум (David McCallum), Ксандер Беркли (Xander Berkeley), Шон Маэр (Sean Maher), Фред Татаскьор (Fred Tatasciore), Брюс Томас (Bruce Thomas), Стюарт Аллан (Stuart Allan) и д.р.
Описание:Рас аль Гул тренирует внука в качестве своего преемника. Но когда предатель захватывает Лигу Ассасинов, Талия с Дэмиеном отправляется к Бэтмену, чтобы попросить помощи и познакомить отца с сыном. Отец - Тёмный Рыцарь, стоящий на страже Готэма. Сын - наследник Рас аль Гула, воспитанный и обученный в Лиге Ассасинов. Вместе им предстоит столкнуться с новым главой Лиги. Вот только один хочет спасти мир, а другой - жаждет лишь мести.--<<Семпл>>--Озвучивали:
TeT_Rec
Katrin Marin
kapets--Качество: BDRip
Формат: MKV
Видео: 1280x720 (16:9), 23.976 fps, AVC, ~4074 kbps, 0.184 bits/pixel
Аудио: Русский, 48 kHz, AC3 Dolby Digital, 3/2 (L,C,R,l,r) + LFE ch, ~640.00 kbps
Аудио2: Английский, 48 kHz, AC3 Dolby Digital, 3/2 (L,C,R,l,r) + LFE ch, ~640.00 kbps
Субтитры: только английские

Подробные технические данные
GeneralUnique ID : 243616818429197542842748816387626270962 (0xB746E47E9C235845AAB10409951C80F2)Complete name : D:\Sony Vegas\видео\Son.of.Batman.2014\Son.of.Batman.2014.BluRay.720p.Rus.Eng.Kapets.s.Studios.mkvFormat : MatroskaFormat version : Version 4 / Version 2File size : 2.83 GiBDuration : 1h 14mnOverall bit rate : 5 463 KbpsMovie name : Son.of.Batman.2014.BluRay.720p.Rus.Eng.Kapets.s.StudiosEncoded date : UTC 2014-05-01 11:24:38Writing application : mkvmerge v6.0.0 ('Coming Up For Air') built on Jan 20 2013 09:52:00Writing library : libebml v1.3.0 + libmatroska v1.4.0
VideoID : 1Format : AVCFormat/Info : Advanced Video CodecFormat profile : High@L4.1Format settings, CABAC : YesFormat settings, ReFrames : 5 framesCodec ID : V_MPEG4/ISO/AVCDuration : 1h 14mnBit rate : 4 074 KbpsWidth : 1 280 pixelsHeight : 720 pixelsDisplay aspect ratio : 16:9Frame rate mode : ConstantFrame rate : 23.976 fpsColor space : YUVChroma subsampling : 4:2:0Bit depth : 8 bitsScan type : ProgressiveBits/(Pixel*Frame) : 0.184Stream size : 2.11 GiB (75%)Default : YesForced : No
Audio #1ID : 2Format : AC-3Format/Info : Audio Coding 3Mode extension : CM (complete main)Format settings, Endianness : BigCodec ID : A_AC3Duration : 1h 14mnBit rate mode : ConstantBit rate : 640 KbpsChannel count : 6 channelsChannel positions : Front: L C R, Side: L R, LFESampling rate : 48.0 KHzBit depth : 16 bitsCompression mode : LossyStream size : 340 MiB (12%)Title : Kapets.s.StudiosLanguage : RussianDefault : YesForced : No
Audio #2ID : 3Format : AC-3Format/Info : Audio Coding 3Mode extension : CM (complete main)Format settings, Endianness : BigCodec ID : A_AC3Duration : 1h 14mnBit rate mode : ConstantBit rate : 640 KbpsChannel count : 6 channelsChannel positions : Front: L C R, Side: L R, LFESampling rate : 48.0 KHzBit depth : 16 bitsCompression mode : LossyStream size : 340 MiB (12%)Title : engLanguage : EnglishDefault : NoForced : No
TextID : 4Format : UTF-8Codec ID : S_TEXT/UTF8Codec ID/Info : UTF-8 Plain TextTitle : eng.subLanguage : EnglishDefault : YesForced : No
Скриншоты

_________________
Показать сообщения:    

Текущее время: Сегодня 04:14

Часовой пояс: GMT



Вы не можете начинать темы
Вы не можете отвечать на сообщения
Вы не можете редактировать свои сообщения
Вы не можете удалять свои сообщения
Вы не можете голосовать в опросах
Вы не можете прикреплять файлы к сообщениям
Вы не можете скачивать файлы