Ивановский Торрент трекер
Яндекс.Погода
 

[Цитировать]
HUNTER

Сын Божий / Son Of God
Страна: США
Студия: 20th Century Fox
Жанр: Драма, история
Год выпуска: 2014
Продолжительность: 02:18:13
Перевод: Одноголосый закадровый (Алексей Лыдин)
Cубтитры: английские, испанские
Оригинальная аудиодорожка: английский
Режиссер: Кристофер Спенсер / Christopher Spencer
В ролях: Себастьян Кнапп, Пол Нопс, Дарси Линкольн, Дэвид Ринтул, Гари Оливер, Уильям Хьюстон, Стюарт Скудамор, Нонсо Анози, Конан Стивенс, Джасса Ахлувалиа, Лэнгли Кирквуд, Джо Коэн, Лейла Миммек, Эндрю Брук, Луиз Деламер, Диого Моргадо, Дауд Шах, Эмбер Роуз Рева, Мэттью Гравель, Пол Марк Дэвис, Фрайзер Эйрс, Адриан Шиллер, Пол Брайтвелл, Саймон Кунц, Рома Дауни, Дэниэл
Описание: Эта масштабная историческая драма, поражающая эпичностью размаха расскажет историю Сына Божьего, родившегося в Вифлееме больше 2-х тысяч лет назад. Картина покажет нам ключевые эпизоды из жизни Иисуса, как исторического персонажа: его путешествия по Иудее, первые проповеди, знакомство со своими учениками, распятие и, в конечном итоге, воскресение и дальнейшее вознесение на небеса...
Сэмпл: https://yadi.sk/i/l25QlGzwagSzT
Тип релиза: BDRip 720p
Контейнер: MKV
Видео: MPEG-4 AVC, 8664 Кбит/с, 1280x536, 23,976 fps
Аудио #1: (Russian) AC3, 6 ch, 640 Кбит/с, 48 kHz
Аудио #2: (English) AC3, 6 ch, 640 Кбит/с, 48 kHz
Формат субтитров: softsub (SRT)

MediaInfo

General
Unique ID : 228508570846314301074887664566727414861 (0xABE92660C6FF2F64BB7AF2363A85144D)
Complete name : D:\films\Son Of God\Son Of God (2014).mkv
Format : Matroska
Format version : Version 4 / Version 2
File size : 9.79 GiB
Duration : 2h 18mn
Overall bit rate : 10.1 Mbps
Movie name : Release Group СПАМ
Encoded date : UTC 2014-08-29 20:08:05
Writing application : mkvmerge v7.1.0 ('Good Love') 64bit built on Jul 27 2014 13:06:55
Writing library : libebml v1.3.0 libmatroska v1.4.1
DURATION : 02:17:14.879000000
NUMBER_OF_FRAMES : 1153
NUMBER_OF_BYTES : 31371
_STATISTICS_WRITING_APP : mkvmerge v7.1.0 ('Good Love') 64bit built on Jul 27 2014 13:06:55
_STATISTICS_WRITING_DATE_UTC : 2014-08-29 20:08:05
_STATISTICS_TAGS : BPS DURATION NUMBER_OF_FRAMES NUMBER_OF_BYTES
Video
ID : 2
Format : AVC
Format/Info : Advanced Video Codec
Format profile : High@L4.1
Format settings, CABAC : Yes
Format settings, ReFrames : 12 frames
Codec ID : V_MPEG4/ISO/AVC
Duration : 2h 18mn
Bit rate : 8 658 Kbps
Width : 1 280 pixels
Height : 536 pixels
Display aspect ratio : 2.40:1
Frame rate mode : Constant
Frame rate : 23.976 fps
Color space : YUV
Chroma subsampling : 4:2:0
Bit depth : 8 bits
Scan type : Progressive
Bits/(Pixel*Frame) : 0.526
Stream size : 8.36 GiB (85%)
Title : Release Group СПАМ
Writing library : x264 core 142 r2431kMod ac76440
Encoding settings : cabac=1 / ref=12 / deblock=1:-3:-3 / analyse=0x3:0x133 / me=tesa / subme=11 / psy=1 / fade_compensate=0.00 / psy_rd=1.00:0.00 / mixed_ref=1 / me_range=24 / chroma_me=1 / trellis=2 / 8x8dct=1 / cqm=0 / deadzone=21,11 / fast_pskip=0 / chroma_qp_offset=-2 / threads=12 / lookahead_threads=2 / sliced_threads=0 / nr=0 / decimate=1 / interlaced=0 / bluray_compat=0 / constrained_intra=0 / fgo=0 / bframes=9 / b_pyramid=2 / b_adapt=2 / b_bias=0 / direct=3 / weightb=1 / open_gop=0 / weightp=2 / keyint=250 / keyint_min=23 / scenecut=40 / intra_refresh=0 / rc=crf / mbtree=0 / crf=15.7000 / qcomp=0.65 / qpmin=0 / qpmax=69 / qpstep=4 / ip_ratio=1.40 / pb_ratio=1.30 / aq=1:0.80
Language : English
Default : Yes
Forced : No
Matrix coefficients : BT.709
Audio #1
ID : 1
Format : AC-3
Format/Info : Audio Coding 3
Mode extension : CM (complete main)
Format settings, Endianness : Big
Codec ID : A_AC3
Duration : 2h 18mn
Bit rate mode : Constant
Bit rate : 640 Kbps
Channel(s) : 6 channels
Channel positions : Front: L C R, Side: L R, LFE
Sampling rate : 48.0 KHz
Bit depth : 16 bits
Compression mode : Lossy
Stream size : 633 MiB (6%)
Title : Русская (Алексей Лыдин)
Language : Russian
Default : Yes
Forced : No
DURATION : 02:18:13.285000000
NUMBER_OF_FRAMES : 198840
NUMBER_OF_BYTES : 9182825680
_STATISTICS_WRITING_APP : mkvmerge v7.1.0 ('Good Love') 64bit built on Jul 27 2014 13:06:55
_STATISTICS_WRITING_DATE_UTC : 2014-08-29 20:08:05
_STATISTICS_TAGS : BPS DURATION NUMBER_OF_FRAMES NUMBER_OF_BYTES
Audio #2
ID : 3
Format : AC-3
Format/Info : Audio Coding 3
Mode extension : CM (complete main)
Format settings, Endianness : Big
Codec ID : A_AC3
Duration : 2h 18mn
Bit rate mode : Constant
Bit rate : 640 Kbps
Channel(s) : 6 channels
Channel positions : Front: L C R, Side: L R, LFE
Sampling rate : 48.0 KHz
Bit depth : 16 bits
Compression mode : Lossy
Stream size : 633 MiB (6%)
Title : Оригинал
Language : English
Default : No
Forced : No
Text #1
ID : 4
Format : UTF-8
Codec ID : S_TEXT/UTF8
Codec ID/Info : UTF-8 Plain Text
Language : English
Default : No
Forced : No
Text #2
ID : 5
Format : UTF-8
Codec ID : S_TEXT/UTF8
Codec ID/Info : UTF-8 Plain Text
Language : English
Default : No
Forced : No
Text #3
ID : 6
Format : UTF-8
Codec ID : S_TEXT/UTF8
Codec ID/Info : UTF-8 Plain Text
Language : Spanish
Default : No
Forced : No
Menu
00:00:00.000 : en:00:00:00.000
00:02:42.412 : en:00:02:42.412
00:04:37.486 : en:00:04:37.486
00:07:39.876 : en:00:07:39.876
00:12:54.190 : en:00:12:54.190
00:17:53.197 : en:00:17:53.197
00:21:30.915 : en:00:21:30.915
00:22:48.075 : en:00:22:48.075
00:25:31.613 : en:00:25:31.613
00:27:20.389 : en:00:27:20.389
00:31:43.110 : en:00:31:43.110
00:36:24.140 : en:00:36:24.140
00:39:06.970 : en:00:39:06.970
00:43:51.462 : en:00:43:51.462
00:47:10.703 : en:00:47:10.703
00:50:26.023 : en:00:50:26.023
00:54:30.100 : en:00:54:30.100
00:56:23.797 : en:00:56:23.797
00:59:18.430 : en:00:59:18.430
01:02:31.289 : en:01:02:31.289
01:08:59.344 : en:01:08:59.344
01:13:03.796 : en:01:13:03.796
01:16:17.198 : en:01:16:17.198
01:21:48.904 : en:01:21:48.904
01:24:13.924 : en:01:24:13.924
01:28:03.278 : en:01:28:03.278
01:29:59.394 : en:01:29:59.394
01:35:30.558 : en:01:35:30.558
01:39:38.347 : en:01:39:38.347
01:44:03.195 : en:01:44:03.195
01:48:44.810 : en:01:48:44.810
01:54:08.884 : en:01:54:08.884
02:02:08.404 : en:02:02:08.404
02:05:21.764 : en:02:05:21.764
02:09:47.154 : en:02:09:47.154
02:14:19.260 : en:02:14:19.260

Скриншоты






Показать сообщения:    

Текущее время: 11-Дек 00:35

Часовой пояс: UTC ± 0


Вы не можете начинать темы
Вы не можете отвечать на сообщения
Вы не можете редактировать свои сообщения
Вы не можете удалять свои сообщения
Вы не можете голосовать в опросах
Вы не можете прикреплять файлы к сообщениям
Вы не можете скачивать файлы

!ВНИМАНИЕ!
Сайт не предоставляет электронные версии произведений, а занимается лишь коллекционированием и каталогизацией ссылок, присылаемых и публикуемых на форуме нашими читателями. Если вы являетесь правообладателем какого-либо представленного материала и не желаете, чтобы ссылка на него находилась в нашем каталоге, свяжитесь с нами, и мы незамедлительно удалим ее. Файлы для обмена на трекере предоставлены пользователями сайта, и администрация не несет ответственности за их содержание. Просьба не заливать файлы, защищенные авторскими правами, а также файлы нелегального содержания!