Важное объявление!
У Нас Все раздачи мультитрекерные, при нуле пиров в релизах, можете смело вставать на закачку!
 
Автор Сообщение

HUNTER

Стаж:
4 года 6 месяцев
Сообщений:
60981

Репутация: 101

[+] [-]
Вне форума [Профиль] [ЛС]

-
Год выпуска: 2013
Страна: США
Жанр: триллер, драма
Продолжительность: 01:36:59-Перевод: Любительский двухголосый (DeadSno & den904)
Режиссер: Эрик Хайссерер / Eric Heisserer
В ролях: Пол Уокер (Nolan), Дженезис Родригез (Abigail), Ник Гомес (Jerry), Джудд Лорманд (Glenn), Мишель Торрес (Hurricane Katrina Victim), Мэтт Кук (Lenny), Керри Кехилл (Nurse Shelly), Тони Бентли (Doctor), Лена Кларк (Lucy), Нэнси Нейв (Sandra), Кеша Баллард (Nurse), Тиджей Хассан (Jeremy)-Описание: Новый Орлеан. Август 2005-го. Смертоносная «Катрина» сметает все на своем пути. Отец изо всех сил пытается спасти свою дочь. Он понимает, что справиться со стихией, остановить беспощадный ураган не в его силах. На спасение дочери остаются считаные часы...--Качество: BDRip-AVC
Контейнер: MKV
Видео кодек: AVC
Аудио кодек: AC3
Видео: AVC, 1024x432 (2.40:1), 2200 kbps, 23,976 fps, 0,207 bpp
Аудио: / AC3 / 5.1 / 48 kHz / 448 kbps / 16 bit -
Рип: and77200
Группа: -

Рейтинг

5.70 (2439) 6.327 (294)

Скриншоты

Media Info

General
Unique ID : 202574457816033449972777215887539033843 (0x98666BE2ADB8039292EC3AE3E1DDD6F3)
Complete name : G:\Фильмы\Считанные часы.2013.BDRip-AVC.mkv
Format : Matroska
Format version : Version 4 / Version 2
File size : 1.79 GiB
Duration : 1h 36mn
Overall bit rate : 2 649 Kbps
Movie name :
Encoded date : UTC 2013-11-30 14:31:45
Writing application : mkvmerge v6.4.1 ('Omega Point') built on Sep 16 2013 22:05:10
Writing library : libebml v1.3.0 + libmatroska v1.4.1
Video
ID : 1
Format : AVC
Format/Info : Advanced Video Codec
Format profile : [url=mailto:High@L4.1]High@L4.1[/url]
Format settings, CABAC : Yes
Format settings, ReFrames : 10 frames
Codec ID : V_MPEG4/ISO/AVC
Duration : 1h 36mn
Bit rate : 2 200 Kbps
Width : 1 024 pixels
Height : 432 pixels
Display aspect ratio : 2.40:1
Original display aspect ratio : 2.40:1
Frame rate mode : Constant
Frame rate : 23.976 fps
Color space : YUV
Chroma subsampling : 4:2:0
Bit depth : 8 bits
Scan type : Progressive
Bits/(Pixel*Frame) : 0.207
Stream size : 1.46 GiB (81%)
Writing library : x264 core 124 r2197M 69a0443
Encoding settings : cabac=1 / ref=11 / deblock=1:0:0 / analyse=0x3:0x133 / me=umh / subme=9 / psy=1 / psy_rd=1.00:0.20 / mixed_ref=1 / me_range=11 / chroma_me=1 / trellis=0 / 8x8dct=1 / cqm=0 / deadzone=21,11 / fast_pskip=1 / chroma_qp_offset=-2 / threads=2 / sliced_threads=0 / nr=0 / decimate=1 / interlaced=0 / bluray_compat=0 / constrained_intra=0 / bframes=11 / b_pyramid=1 / b_adapt=0 / b_bias=0 / direct=3 / weightb=1 / open_gop=0 / weightp=0 / keyint=230 / keyint_min=23 / scenecut=40 / intra_refresh=0 / rc_lookahead=40 / rc=2pass / mbtree=1 / bitrate=2200 / ratetol=1.0 / qcomp=0.60 / qpmin=10 / qpmax=51 / qpstep=4 / cplxblur=20.0 / qblur=0.5 / ip_ratio=1.40 / aq=1:1.00
Language : English
Default : Yes
Forced : No
Audio
ID : 2
Format : AC-3
Format/Info : Audio Coding 3
Mode extension : CM (complete main)
Format settings, Endianness : Big
Codec ID : A_AC3
Duration : 1h 36mn
Bit rate mode : Constant
Bit rate : 448 Kbps
Channel count : 6 channels
Channel positions : Front: L C R, Side: L R, LFE
Sampling rate : 48.0 KHz
Bit depth : 16 bits
Compression mode : Lossy
Stream size : 311 MiB (17%)
Language : Russian
Default : Yes
Forced : No
Text
ID : 3
Format : UTF-8
Codec ID : S_TEXT/UTF8
Codec ID/Info : UTF-8 Plain Text
Language : English
Default : No
Forced : No
Menu
00:00:00.000 : :Chapter 01
00:07:04.590 : :Chapter 02
00:15:39.229 : :Chapter 03
00:23:37.165 : :Chapter 04
00:32:11.429 : :Chapter 05
00:40:26.424 : :Chapter 06
00:49:04.524 : :Chapter 07
00:56:11.368 : :Chapter 08
01:04:57.268 : :Chapter 09
01:14:31.925 : :Chapter 10
01:23:40.432 : :Chapter 11
01:32:41.138 : :Chapter 12
01:36:59.271 : :Chapter 13
Оформление by and77200

_________________
Показать сообщения:    

Текущее время: Сегодня 04:51

Часовой пояс: GMT



Вы не можете начинать темы
Вы не можете отвечать на сообщения
Вы не можете редактировать свои сообщения
Вы не можете удалять свои сообщения
Вы не можете голосовать в опросах
Вы не можете прикреплять файлы к сообщениям
Вы не можете скачивать файлы
Наши партнеры: интернет магазин Ивановского трикотажа textilla.ru