Важное объявление!
У Нас Все раздачи мультитрекерные, при нуле пиров в релизах, можете смело вставать на закачку!
 
Автор Сообщение

HUNTER

Стаж:
4 года 8 месяцев
Сообщений:
62060

Репутация: 101

[+] [-]
Вне форума [Профиль] [ЛС]

Счастье – это...- -Страна: Россия
Жанр: семейный, мелодрама
Год выпуска: 2015
Производство: «Disney»
Продолжительность: 01:38:16
Оригинальная аудиодорожка: русский
Cубтитры: нет-Режиссер: Артём Прохоров, Леонид Залесский, Анна Яновская, Татьяна Гулина, Виктория Козельцева, Татьяна Пономарева, Сергей Буров-В ролях:
Станислав Дужников, Борис Щербаков, Валерий Гаркалин, Андрей Мерзликин, Егор Бероев, Светлана Иванова, Павел Прилучный, Сергей Пускепалис, Сергей Лавыгин, Алина Бабак-Описание:
Семь историй с одним исходом. Сколь часто мы слышим о таком явлении в жизни человеческой, как счастье? А как часто встречаемся с ним? Наверное, каждый может не задумываясь дать определение этому понятию.
Тёплый дом, в котором резвится ребятня, а твоя вторая половинка заботливо старается направлять поток детской энергии в безопасное русло. Успешно проведённая сделка и, как следствие, лишний раз утверждение себя, как настоящего добытчика.
Для кого-то это первая и ставшая единственной любовь, для другого самым приятным в жизни становится простая прогулка пешком по зимнему парку и возможность наслаждаться морозным воздухом, да наблюдать за лениво спускающимися с небес снежинками...-Возраст: 6+-Качество: WEB-DL 1080p
Формат: MKV
Видео кодек: AVC
Аудио кодек: AC3

Видео: AVC, 1916 х 802 (16:9), 25,000 кадр/сек, 4 491 Кбит/сек, 0.117 bit/pixel
Аудио: AC3, 48000 Hz, 384 Kbps, 6 каналов
-

MediaInfo

General
Unique ID : 197268853416863657516177216279529804056 (0x946899647412B4E89E2B7F8C2AFA5118)
Complete name : D:\Раздачи\Счастье - это... WEB-DL (1080p)\Счастье - это... WEB-DL (1080p).mkv
Format : Matroska
Format version : Version 4 / Version 2
File size : 3.35 GiB
Duration : 1h 38mn
Overall bit rate : 4 877 Kbps
Encoded date : UTC 2015-04-27 20:39:49
Writing application : mkvmerge v7.6.0 ('Garden of Dreams') 32bit built on Feb 8 2015 12:51:39
Writing library : libebml v1.3.1 + libmatroska v1.4.2
Video
ID : 1
Format : AVC
Format/Info : Advanced Video Codec
Format profile : High@L4
Format settings, CABAC : Yes
Format settings, ReFrames : 5 frames
Codec ID : V_MPEG4/ISO/AVC
Duration : 1h 38mn
Bit rate : 4 491 Kbps
Width : 1 916 pixels
Height : 802 pixels
Display aspect ratio : 2.40:1
Frame rate mode : Constant
Frame rate : 25.000 fps
Color space : YUV
Chroma subsampling : 4:2:0
Bit depth : 8 bits
Scan type : Progressive
Bits/(Pixel*Frame) : 0.117
Stream size : 3.08 GiB (92%)
Language : English
Default : Yes
Forced : No
Color range : Limited
Color primaries : BT.709
Transfer characteristics : BT.709
Matrix coefficients : BT.709
Audio
ID : 2
Format : AC-3
Format/Info : Audio Coding 3
Mode extension : CM (complete main)
Format settings, Endianness : Big
Codec ID : A_AC3
Duration : 1h 38mn
Bit rate mode : Constant
Bit rate : 384 Kbps
Channel(s) : 6 channels
Channel positions : Front: L C R, Side: L R, LFE
Sampling rate : 48.0 KHz
Frame rate : 31.250 fps (1536 spf)
Compression mode : Lossy
Stream size : 270 MiB (8%)
Language : Russian
Default : Yes
Forced : No
Menu
00:00:00.000 : en:глава 1
00:01:36.000 : en:глава 2
00:13:43.000 : en:глава 3
00:26:23.000 : en:глава 4
00:39:12.000 : en:глава 5
00:53:26.000 : en:глава 6
01:08:43.000 : en:глава 7
01:19:18.000 : en:глава 8
01:33:44.000 : en:глава 9

Скриншоты


-Раздаю до первых 5-ти скачавших, на раздачи не возвращаюсь...-

_________________
Показать сообщения:    

Текущее время: Сегодня 06:30

Часовой пояс: GMT



Вы не можете начинать темы
Вы не можете отвечать на сообщения
Вы не можете редактировать свои сообщения
Вы не можете удалять свои сообщения
Вы не можете голосовать в опросах
Вы не можете прикреплять файлы к сообщениям
Вы не можете скачивать файлы
Наши партнеры: интернет магазин Ивановского трикотажа textilla.ru