Ивановский Торрент трекер
Яндекс.Погода
 

[Цитировать]
HUNTER

Счастливая странница / Мама Лючия / Счастливые пилигримы
The Fortunate Pilgrim / Mamma Lucia
4:3 PAL R2
Страна: Италия, США
Студия: Carlo & Alex Ponti, Rete Europa
Жанр: драма
Год выпуска: 1988
Продолжительность: 01:31:41 + 01:23:01 + 01:27:31
Перевод: Профессиональный (многоголосый закадровый)
Cубтитры: нидерландские
Оригинальная аудиодорожка: английский
Режиссер: Стюарт Купер / Stuart Cooper
В ролях: Софи Лорен, Эдвард Джеймс Олмос, Джон Туртурро, Анна Страсберг, Йорго Воягис, Миряна Каранович, Аннабелла Шиорра, Рон Маркетт, Харольд Пруэтт, Хэл Холбрук ...
Описание: Фильм об Америке периода Великой Депрессии и о судьбах итальянских эмигрантов.
По роману Марио Пьюзо. История о всепобеждающей решимости молодой женщины бороться за лучшую жизнь для себя и своих пятерых детей. Действие происходит во время Великой депрессии в одном из бедных районов Нью-Йорка. Мама Лючия – итальянская иммигрантка, всеми силами стремящаяся сохранить мир в семье и в то же время переживающая мучительную пору адаптации к новой жизни.
Доп. информация: Диск собран из The Fortunate Pilgrim_1988_3xDVD5 R2 найденного в сети. (Который на постере)
Меню: Статичное, озвученное, на нидерландском.Меню неотредактировано, переключение звуковых дорожек с пульта.
Фильм автоматически стартует с рус. звук. дорожкой.
--Спасибо за рус. дорожку kikimiki-- --The Fortunate Pilgrim_1988_3xDVD5 R2_Part - 1_Sample_.rar
The Fortunate Pilgrim_1988_3xDVD5 R2_Part - 2_Sample_.rar
The Fortunate Pilgrim_1988_3xDVD5 R2_Part - 3_Sample_.rar--Синхронизация звук. дорожек Нордер
За что ему превеликая благодарность
--Тип релиза: 3xDVD5 (Custom)
Контейнер: DVD-Video
Видео: PAL 4:3 (720x576) VBR, ~ 6041.99 kbps avg
Аудио 1: English, AC3, 2/0 (L,R) ch, 224 kbps, Delay 0 mSec
Аудио 2: English, AC3, 3/2 (L,C,R,SL,SR)+LFE ch, 448 kbps, Delay 0 mSec
Аудио 3: English, DTS, 3/2 (L,C,R,SL,SR), 768 kbps, Delay 0 mSec
Аудио 4: Russian, AC3, 2/0 (L,R) ch, 192 kbps, Delay 0 mSec
Формат субтитров: prerendered (DVD/IDX+SUB)

MediaInfo

General
Complete name : I:\111\z_D_Disk\The Fortunate Pilgrim_1988_3xDVD5 R2\Disc - 1\VIDEO_TS\VTS_02_2.VOB
Format : MPEG-PS
File size : 1 024 MiB
Duration : 25mn 48s
Overall bit rate mode : Variable
Overall bit rate : 5 547 Kbps
Video
ID : 224 (0xE0)
Format : MPEG Video
Format version : Version 2
Format profile : Main@Main
Format settings, BVOP : Yes
Format settings, Matrix : Custom
Format settings, GOP : M=2, N=14
Format settings, picture st : Frame
Duration : 25mn 48s
Bit rate mode : Variable
Bit rate : 3 818 Kbps
Maximum bit rate : 8 200 Kbps
Width : 720 pixels
Height : 576 pixels
Display aspect ratio : 4:3
Frame rate : 25.000 fps
Standard : PAL
Color space : YUV
Chroma subsampling : 4:2:0
Bit depth : 8 bits
Scan type : Interlaced
Scan order : Top Field First
Compression mode : Lossy
Bits/(Pixel*Frame) : 0.368
Time code of first frame : 00:24:10;24
Time code source : Group of pictures header
GOP, Open/Closed : Open
Stream size : 705 MiB (69%)
Audio #1
ID : 189 (0xBD)-128 (0x80)
Format : AC-3
Format/Info : Audio Coding 3
Mode extension : CM (complete main)
Format settings, Endianness : Big
Muxing mode : DVD-Video
Duration : 25mn 48s
Bit rate mode : Constant
Bit rate : 224 Kbps
Channel(s) : 2 channels
Channel positions : Front: L R
Sampling rate : 48.0 KHz
Bit depth : 16 bits
Compression mode : Lossy
Delay relative to video : -632ms
Stream size : 41.3 MiB (4%)
Audio #2
ID : 189 (0xBD)-129 (0x81)
Format : AC-3
Format/Info : Audio Coding 3
Mode extension : CM (complete main)
Format settings, Endianness : Big
Muxing mode : DVD-Video
Duration : 25mn 48s
Bit rate mode : Constant
Bit rate : 448 Kbps
Channel(s) : 6 channels
Channel positions : Front: L C R, Side: L R, LFE
Sampling rate : 48.0 KHz
Bit depth : 16 bits
Compression mode : Lossy
Delay relative to video : -696ms
Stream size : 82.7 MiB (8%)
Audio #3
ID : 189 (0xBD)-131 (0x83)
Format : AC-3
Format/Info : Audio Coding 3
Mode extension : CM (complete main)
Format settings, Endianness : Big
Muxing mode : DVD-Video
Duration : 25mn 48s
Bit rate mode : Constant
Bit rate : 192 Kbps
Channel(s) : 2 channels
Channel positions : Front: L R
Sampling rate : 48.0 KHz
Bit depth : 16 bits
Compression mode : Lossy
Delay relative to video : -600ms
Stream size : 35.4 MiB (3%)
Audio #4
ID : 189 (0xBD)-138 (0x8A)
Format : DTS
Format/Info : Digital Theater Systems
Mode : 16
Format settings, Endianness : Big
Muxing mode : DVD-Video
Duration : 25mn 48s
Bit rate mode : Constant
Bit rate : 755 Kbps
Channel(s) : 6 channels
Channel positions : Front: L C R, Side: L R, LFE
Sampling rate : 48.0 KHz
Bit depth : 24 bits
Compression mode : Lossy
Delay relative to video : -739ms
Stream size : 139 MiB (14%)
Text
ID : 189 (0xBD)-32 (0x20)
Format : RLE
Format/Info : Run-length encoding
Muxing mode : DVD-Video
Delay relative to video : 4s 800ms
Menu-
-
-General
Complete name : I:\111\z_D_Disk\The Fortunate Pilgrim_1988_3xDVD5 R2\Disc - 2\VIDEO_TS\VTS_02_2.VOB
Format : MPEG-PS
File size : 1 024 MiB
Duration : 23mn 54s
Overall bit rate mode : Variable
Overall bit rate : 5 990 Kbps
Video
ID : 224 (0xE0)
Format : MPEG Video
Format version : Version 2
Format profile : Main@Main
Format settings, BVOP : Yes
Format settings, Matrix : Custom
Format settings, GOP : M=2, N=14
Format settings, picture st : Frame
Duration : 23mn 53s
Bit rate mode : Variable
Bit rate : 4 252 Kbps
Maximum bit rate : 8 200 Kbps
Width : 720 pixels
Height : 576 pixels
Display aspect ratio : 4:3
Frame rate : 25.000 fps
Standard : PAL
Color space : YUV
Chroma subsampling : 4:2:0
Bit depth : 8 bits
Scan type : Interlaced
Scan order : Top Field First
Compression mode : Lossy
Bits/(Pixel*Frame) : 0.410
Time code of first frame : 00:25:43;09
Time code source : Group of pictures header
GOP, Open/Closed : Open
Stream size : 727 MiB (71%)
Audio #1
ID : 189 (0xBD)-128 (0x80)
Format : AC-3
Format/Info : Audio Coding 3
Mode extension : CM (complete main)
Format settings, Endianness : Big
Muxing mode : DVD-Video
Duration : 23mn 54s
Bit rate mode : Constant
Bit rate : 224 Kbps
Channel(s) : 2 channels
Channel positions : Front: L R
Sampling rate : 48.0 KHz
Bit depth : 16 bits
Compression mode : Lossy
Delay relative to video : -520ms
Stream size : 38.3 MiB (4%)
Audio #2
ID : 189 (0xBD)-129 (0x81)
Format : AC-3
Format/Info : Audio Coding 3
Mode extension : CM (complete main)
Format settings, Endianness : Big
Muxing mode : DVD-Video
Duration : 23mn 54s
Bit rate mode : Constant
Bit rate : 448 Kbps
Channel(s) : 6 channels
Channel positions : Front: L C R, Side: L R, LFE
Sampling rate : 48.0 KHz
Bit depth : 16 bits
Compression mode : Lossy
Delay relative to video : -584ms
Stream size : 76.6 MiB (7%)
Audio #3
ID : 189 (0xBD)-131 (0x83)
Format : AC-3
Format/Info : Audio Coding 3
Mode extension : CM (complete main)
Format settings, Endianness : Big
Muxing mode : DVD-Video
Duration : 23mn 54s
Bit rate mode : Constant
Bit rate : 192 Kbps
Channel(s) : 2 channels
Channel positions : Front: L R
Sampling rate : 48.0 KHz
Bit depth : 16 bits
Compression mode : Lossy
Delay relative to video : -488ms
Stream size : 32.8 MiB (3%)
Audio #4
ID : 189 (0xBD)-138 (0x8A)
Format : DTS
Format/Info : Digital Theater Systems
Mode : 16
Format settings, Endianness : Big
Muxing mode : DVD-Video
Duration : 23mn 54s
Bit rate mode : Constant
Bit rate : 755 Kbps
Channel(s) : 6 channels
Channel positions : Front: L C R, Side: L R, LFE
Sampling rate : 48.0 KHz
Bit depth : 16 bits
Compression mode : Lossy
Delay relative to video : -627ms
Stream size : 129 MiB (13%)
Text
ID : 189 (0xBD)-32 (0x20)
Format : RLE
Format/Info : Run-length encoding
Muxing mode : DVD-Video
Duration : 23mn 52s
Delay relative to video : -40ms
Menu-
-
-General
Complete name : I:\111\z_D_Disk\The Fortunate Pilgrim_1988_3xDVD5 R2\Disc - 3\VIDEO_TS\VTS_02_2.VOB
Format : MPEG-PS
File size : 1 024 MiB
Duration : 21mn 7s
Overall bit rate mode : Variable
Overall bit rate : 6 778 Kbps
Video
ID : 224 (0xE0)
Format : MPEG Video
Format version : Version 2
Format profile : Main@Main
Format settings, BVOP : Yes
Format settings, Matrix : Custom
Format settings, GOP : M=2, N=14
Format settings, picture st : Frame
Duration : 21mn 7s
Bit rate mode : Variable
Bit rate : 5 025 Kbps
Maximum bit rate : 8 200 Kbps
Width : 720 pixels
Height : 576 pixels
Display aspect ratio : 4:3
Frame rate : 25.000 fps
Standard : PAL
Color space : YUV
Chroma subsampling : 4:2:0
Bit depth : 8 bits
Scan type : Interlaced
Scan order : Top Field First
Compression mode : Lossy
Bits/(Pixel*Frame) : 0.485
Time code of first frame : 00:22:48;08
Time code source : Group of pictures header
GOP, Open/Closed : Open
Stream size : 759 MiB (74%)
Audio #1
ID : 189 (0xBD)-128 (0x80)
Format : AC-3
Format/Info : Audio Coding 3
Mode extension : CM (complete main)
Format settings, Endianness : Big
Muxing mode : DVD-Video
Duration : 21mn 7s
Bit rate mode : Constant
Bit rate : 224 Kbps
Channel(s) : 2 channels
Channel positions : Front: L R
Sampling rate : 48.0 KHz
Bit depth : 16 bits
Compression mode : Lossy
Delay relative to video : -488ms
Stream size : 33.8 MiB (3%)
Audio #2
ID : 189 (0xBD)-129 (0x81)
Format : AC-3
Format/Info : Audio Coding 3
Mode extension : CM (complete main)
Format settings, Endianness : Big
Muxing mode : DVD-Video
Duration : 21mn 7s
Bit rate mode : Constant
Bit rate : 448 Kbps
Channel(s) : 6 channels
Channel positions : Front: L C R, Side: L R, LFE
Sampling rate : 48.0 KHz
Bit depth : 16 bits
Compression mode : Lossy
Delay relative to video : -552ms
Stream size : 67.7 MiB (7%)
Audio #3
ID : 189 (0xBD)-131 (0x83)
Format : AC-3
Format/Info : Audio Coding 3
Mode extension : CM (complete main)
Format settings, Endianness : Big
Muxing mode : DVD-Video
Duration : 21mn 7s
Bit rate mode : Constant
Bit rate : 192 Kbps
Channel(s) : 2 channels
Channel positions : Front: L R
Sampling rate : 48.0 KHz
Bit depth : 16 bits
Compression mode : Lossy
Delay relative to video : -488ms
Stream size : 29.0 MiB (3%)
Audio #4
ID : 189 (0xBD)-138 (0x8A)
Format : DTS
Format/Info : Digital Theater Systems
Mode : 16
Format settings, Endianness : Big
Muxing mode : DVD-Video
Duration : 21mn 7s
Bit rate mode : Constant
Bit rate : 755 Kbps
Channel(s) : 6 channels
Channel positions : Front: L C R, Side: L R, LFE
Sampling rate : 48.0 KHz
Bit depth : 16 bits
Compression mode : Lossy
Delay relative to video : -584ms
Stream size : 114 MiB (11%)
Text
ID : 189 (0xBD)-32 (0x20)
Format : RLE
Format/Info : Run-length encoding
Muxing mode : DVD-Video
Delay relative to video : 2s 480ms
Menu

DVDInfo

Title: Disc - 1
Size: 3.90 Gb ( 4 084 638,00 KBytes ) - DVD-5
Enabled regions: 1, 2, 3, 4, 5, 6, 7, 8
VTS_01 :
Play Length: 00:00:31
Video: PAL 4:3 (720x576) VBR
Audio:
English (Dolby AC3, 2 ch)
VTS_02 :
Play Length: 01:31:41
Video: PAL 4:3 (720x576) VBR
Audio:
English, AC3, 2/0 (L,R) ch, 224 kbps, Delay 0 mSec
English, AC3, 3/2 (L,C,R,SL,SR)+LFE ch, 448 kbps, Delay 0 mSec
English, DTS, 3/2 (L,C,R,SL,SR), 768 kbps, Delay 0 mSec
Russian, AC3, 2/0 (L,R) ch, 192 kbps, Delay 0 mSec
Subtitles:
Nederlands
* Menus Information *
VIDEO_TS Menu
Video:
NTSC 4:3 (720x480) VBR
Auto Pan&Scan, Auto Letterboxed
English Language Unit :
Title Menu
VTS_01 Menu
Video:
PAL 4:3 (720x576) VBR
Audio:
Not specified (Dolby AC3, 2 ch)
English Language Unit :
Root Menu
VTS_02 Menu
Video:
PAL 4:3 (720x576) VBR
English Language Unit :
Root Menu-
-
-Title: Disc - 2
Size: 3.60 Gb ( 3 769 794,00 KBytes ) - DVD-5
Enabled regions: 1, 2, 3, 4, 5, 6, 7, 8
VTS_01 :
Play Length: 00:00:31
Video: PAL 4:3 (720x576) VBR
Audio:
English (Dolby AC3, 2 ch)
VTS_02 :
Play Length: 01:23:01
Video: PAL 4:3 (720x576) VBR
Audio:
English, AC3, 2/0 (L,R) ch, 224 kbps, Delay 0 mSec
English, AC3, 3/2 (L,C,R,SL,SR)+LFE ch, 448 kbps, Delay 0 mSec
English, DTS, 3/2 (L,C,R,SL,SR), 768 kbps, Delay 0 mSec
Russian, AC3, 2/0 (L,R) ch, 192 kbps, Delay 0 mSec
Subtitles:
Nederlands
* Menus Information *
VIDEO_TS Menu
Video:
NTSC 4:3 (720x480) VBR
Auto Pan&Scan, Auto Letterboxed
English Language Unit :
Title Menu
VTS_01 Menu
Video:
PAL 4:3 (720x576) VBR
Audio:
Not specified (Dolby AC3, 2 ch)
English Language Unit :
Root Menu
VTS_02 Menu
Video:
PAL 4:3 (720x576) VBR
English Language Unit :
Root Menu-
-
-Title: Disc - 3
Size: 4.00 Gb ( 4 194 192,00 KBytes ) - DVD-5
Enabled regions: 1, 2, 3, 4, 5, 6, 7, 8
VTS_01 :
Play Length: 00:00:31
Video: PAL 4:3 (720x576) VBR
Audio:
English (Dolby AC3, 2 ch)
VTS_02 :
Play Length: 01:27:31
Video: PAL 4:3 (720x576) VBR
Audio:
English (Dolby AC3, 2 ch)
English (Dolby AC3, 6 ch)
English (DTS, 5 ch)
Russian (Dolby AC3, 2 ch)
Subtitles:
Nederlands
* Menus Information *
VIDEO_TS Menu
Video:
NTSC 4:3 (720x480) VBR
Auto Pan&Scan, Auto Letterboxed
English Language Unit :
Title Menu
VTS_01 Menu
Video:
PAL 4:3 (720x576) VBR
Audio:
Not specified (Dolby AC3, 2 ch)
English Language Unit :
Root Menu
VTS_02 Menu
Video:
PAL 4:3 (720x576) VBR
English Language Unit :
Root Menu

П. О.

PgcDemux 1.2.0.5 - разделение компонентов диска на файлы;
MuxMan DVD authoring Professional 1.4.4 - мультиплексирование и авторинг DVD;
DVDRemake Pro 3.6.4 - реавторинг DVD;
DVD Shrink 3.2 - Сэмпл
VLC - Скриншоты-
-
- -
-
-MuxMan version 1.4.4
new project database size 400, base 2660018.
new pointer management list size 50.
new clipboard database size 20, base 61f1a0.
Accepted audio C:\Temp\PILIGRIM\Part-1\AudioFile_80.ac3
Accepted audio C:\Temp\PILIGRIM\Part-1\AudioFile_81.ac3
Accepted audio C:\Temp\PILIGRIM\Part-1\AudioFile_8A.dts
Accepted audio C:\Temp\Странница 1-2-3\AUDIO\счастливая странница 1 синхр.ac3
18:51:57 Begin multiplex VTS01.
Title Segment List
Segment_1 non-seamless
Encoded stream 20 is script stream 1.
Buffering audio track 1 file C:\Temp\PILIGRIM\Part-1\AudioFile_80.ac3.
Buffering audio track 2 file C:\Temp\PILIGRIM\Part-1\AudioFile_81.ac3.
Buffering audio track 3 file C:\Temp\PILIGRIM\Part-1\AudioFile_8A.dts.
Buffering audio track 4 file C:\Temp\Странница 1-2-3\AUDIO\счастливая странница 1 синхр.ac3.
Maximum audio duration 275052 fields.
Multiplex delay set to 25257.
Positioned C:\Temp\PILIGRIM\Part-1\VideoFile.m2v to 00:00:00:00
Starting scene Segment_1_scn1 at 00:00:00:00
Starting scene Segment_1_scn2 at 00:08:39:03
Starting scene Segment_1_scn3 at 00:14:43:17
Starting scene Segment_1_scn4 at 00:23:27:21
Starting scene Segment_1_scn5 at 00:29:11:03
Starting scene Segment_1_scn6 at 00:38:16:00
Starting scene Segment_1_scn7 at 00:44:23:09
Starting scene Segment_1_scn8 at 00:53:43:23
Starting scene Segment_1_scn9 at 00:59:18:06
Starting scene Segment_1_scn10 at 01:05:59:19
Starting scene Segment_1_scn11 at 01:13:52:24
Starting scene Segment_1_scn12 at 01:22:26:12
Starting scene Segment_1_scn13 at 01:31:41:00
SeqEnd at B02F545E.
Bytes remaining in buffer = 0.
Bitrate - avg: 6041052, min: 1092266 (lba 2028455), max: 11322514 (lba 31234).
Shortest GOP has 6 fields, longest GOP has 28 fields.
Fields: 275074, VOBU: 9824, Sectors: 2028487.
18:56:47 Begin multiplex VMG.
18:56:48 End multiplex.
Summary of Virtual Memory Management
VM base 02660000, reserved 5c000000, commited 00010000, free 5d68, disposable 0.
handle 1, size a298 (41600 data), owner 80000001, time 0, locks 1 0 0, lcnt 1.
Locked by DBinit.
handle 0, size 5d68 (23888 data), owner 0, time 0, locks 0 0 0, lcnt 0.
--MuxMan version 1.4.4
new project database size 400, base 2710018.
new pointer management list size 50.
new clipboard database size 20, base 72f1a0.
19:47:38 Begin m2v survey of C:\Temp\PILIGRIM\Part-2\VideoFile.m2v.
Accepted audio C:\Temp\PILIGRIM\Part-2\AudioFile_80.ac3
Accepted audio C:\Temp\PILIGRIM\Part-2\AudioFile_81.ac3
Accepted audio C:\Temp\PILIGRIM\Part-2\AudioFile_8A.dts
Accepted audio C:\Temp\Странница 1-2-3\AUDIO\счастливая странница 2 синхр.ac3
19:48:42 End survey of C:\Temp\PILIGRIM\Part-2\VideoFile.m2v.
19:49:22 Begin multiplex VTS01.
Title Segment List
Segment_1 non-seamless
Encoded stream 20 is script stream 1.
Buffering audio track 1 file C:\Temp\PILIGRIM\Part-2\AudioFile_80.ac3.
Buffering audio track 2 file C:\Temp\PILIGRIM\Part-2\AudioFile_81.ac3.
Buffering audio track 3 file C:\Temp\PILIGRIM\Part-2\AudioFile_8A.dts.
Buffering audio track 4 file C:\Temp\Странница 1-2-3\AUDIO\счастливая странница 2 синхр.ac3.
Maximum audio duration 249052 fields.
Multiplex delay set to 25257.
Positioned C:\Temp\PILIGRIM\Part-2\VideoFile.m2v to 00:00:00:00
Starting scene Segment_1_scn1 at 00:00:00:00
Starting scene Segment_1_scn2 at 00:05:53:23
Starting scene Segment_1_scn3 at 00:15:10:00
Starting scene Segment_1_scn4 at 00:19:02:24
Starting scene Segment_1_scn5 at 00:26:59:13
Starting scene Segment_1_scn6 at 00:34:25:07
Starting scene Segment_1_scn7 at 00:41:15:19
Starting scene Segment_1_scn8 at 00:47:36:14
Starting scene Segment_1_scn9 at 00:56:28:00
Starting scene Segment_1_scn10 at 01:01:24:06
Starting scene Segment_1_scn11 at 01:06:46:20
Starting scene Segment_1_scn12 at 01:13:45:03
Starting scene Segment_1_scn13 at 01:23:01:00
SeqEnd at A3B05DD1.
Bytes remaining in buffer = 0.
Bitrate - avg: 6154024, min: 1092266 (lba 1871071), max: 11117714 (lba 1551192).
Shortest GOP has 18 fields, longest GOP has 28 fields.
Fields: 249074, VOBU: 8895, Sectors: 1871103.
19:55:46 Begin multiplex VMG.
19:55:46 End multiplex.
Summary of Virtual Memory Management
VM base 02710000, reserved 5c000000, commited 00010000, free 5d68, disposable 0.
handle 1, size a298 (41600 data), owner 80000001, time 0, locks 1 0 0, lcnt 1.
Locked by DBinit.
handle 0, size 5d68 (23888 data), owner 0, time 0, locks 0 0 0, lcnt 0.
--MuxMan version 1.4.4
new project database size 400, base 2800018.
new pointer management list size 50.
new clipboard database size 20, base 9af1a0.
20:24:09 Begin m2v survey of C:\Temp\PILIGRIM\Part-3\VideoFile.m2v.
Accepted audio C:\Temp\PILIGRIM\Part-3\AudioFile_80.ac3
Accepted audio C:\Temp\PILIGRIM\Part-3\AudioFile_81.ac3
Accepted audio C:\Temp\PILIGRIM\Part-3\AudioFile_8A.dts
Accepted audio C:\Temp\Странница 1-2-3\AUDIO\счастливая странница 3 синхр.ac3
20:25:24 End survey of C:\Temp\PILIGRIM\Part-3\VideoFile.m2v.
20:26:02 Begin multiplex VTS01.
Title Segment List
Segment_1 non-seamless
Encoded stream 20 is script stream 1.
Buffering audio track 1 file C:\Temp\PILIGRIM\Part-3\AudioFile_80.ac3.
Buffering audio track 2 file C:\Temp\PILIGRIM\Part-3\AudioFile_81.ac3.
Buffering audio track 3 file C:\Temp\PILIGRIM\Part-3\AudioFile_8A.dts.
Buffering audio track 4 file C:\Temp\Странница 1-2-3\AUDIO\счастливая странница 3 синхр.ac3.
Maximum audio duration 262552 fields.
Multiplex delay set to 25257.
Positioned C:\Temp\PILIGRIM\Part-3\VideoFile.m2v to 00:00:00:00
Starting scene Segment_1_scn1 at 00:00:00:00
Starting scene Segment_1_scn2 at 00:05:24:06
Starting scene Segment_1_scn3 at 00:11:48:24
Starting scene Segment_1_scn4 at 00:18:43:23
Starting scene Segment_1_scn5 at 00:28:33:15
Starting scene Segment_1_scn6 at 00:34:05:03
Starting scene Segment_1_scn7 at 00:42:49:07
Starting scene Segment_1_scn8 at 00:50:38:14
Starting scene Segment_1_scn9 at 00:58:46:08
Starting scene Segment_1_scn10 at 01:05:20:00
Starting scene Segment_1_scn11 at 01:14:57:23
Starting scene Segment_1_scn12 at 01:26:31:19
Starting scene Segment_1_scn13 at 01:27:31:00
SeqEnd at B9EB089E.
Bytes remaining in buffer = 0.
Bitrate - avg: 6499557, min: 1126400 (lba 2083237), max: 11527314 (lba 2003026).
Shortest GOP has 22 fields, longest GOP has 28 fields.
Fields: 262574, VOBU: 9378, Sectors: 2083270.
20:32:16 Begin multiplex VMG.
20:32:16 End multiplex.
Summary of Virtual Memory Management
VM base 02800000, reserved 5c000000, commited 00010000, free 5d68, disposable 0.
handle 1, size a298 (41600 data), owner 80000001, time 0, locks 1 0 0, lcnt 1.
Locked by DBinit.
handle 0, size 5d68 (23888 data), owner 0, time 0, locks 0 0 0, lcnt 0.

Скриншоты меню

-- --
Показать сообщения:    

Текущее время: 21-Сен 16:47

Часовой пояс: UTC - 1


Вы не можете начинать темы
Вы не можете отвечать на сообщения
Вы не можете редактировать свои сообщения
Вы не можете удалять свои сообщения
Вы не можете голосовать в опросах
Вы не можете прикреплять файлы к сообщениям
Вы не можете скачивать файлы

!ВНИМАНИЕ!
Сайт не предоставляет электронные версии произведений, а занимается лишь коллекционированием и каталогизацией ссылок, присылаемых и публикуемых на форуме нашими читателями. Если вы являетесь правообладателем какого-либо представленного материала и не желаете, чтобы ссылка на него находилась в нашем каталоге, свяжитесь с нами, и мы незамедлительно удалим ее. Файлы для обмена на трекере предоставлены пользователями сайта, и администрация не несет ответственности за их содержание. Просьба не заливать файлы, защищенные авторскими правами, а также файлы нелегального содержания!