Ивановский Торрент трекер
Яндекс.Погода
 

[Цитировать]
HUNTER

Суставная гимнастика / Articulation's Gymnastic-
Год выпуска: 2006
Страна: Россия
Сайт производителя: отсутствует
Тематика: гимнастика
Тип материала: Обучающее видео-Продолжительность: 01:28:45
Автор: Валентин Дикуль-Язык: Русский
Субтитры: отсутствуют-Описание: Прорабатываются мышцы всех отделов позвоночника, брюшной пресс и суставы. Для людей, знакомых с физической нагрузкой, до 40 лет. В дополнение приведены упражнения для плече-лопаточного отдела с гимнастической палочкой и гантелями.-Качество: DVDRip
Формат: AVI
Видео кодек: DivX
Аудио кодек: AC3
Видео: 480x352 (1.36:1), 25 fps, DivX Codec 5.x or 6.x ~966 kbps avg, 0.23 bit/pixel
Аудио: 48 kHz, MPEG Layer 3, 2 ch, ~112.00 kbps avg-

Доп. информация

Фильм предназначен для людей,имеющих проблемы спозвоночником. Упражнения мягкие по физической нагрузке, охватывают все отделы позвоночника и мышцы. Используется для поддержания эластичности мышц позвоночника. В дополнение приведены упражнения для плече-лопаточного отдела с гимнастической палочкой и гантелями. Диск является хорошим методическим средством для профилактики остеохондроза.

Содержание

Содержание:
- Вступительное слово В. И. Дикуля
- Боль и ее природа
- Упражнения для снятия боли
- Комплекс суставной гимнастики
- Комплекс упражнения на плечелопаточный периартрит и артроз с гимнастической палочкой и гантелями

MediaInfo

Код: copyText_writeLink('this.parentNode.parentNode.nextSibling.nextSibling'); General
Complete name : E:\Обучение\Dikul_Sustavnaja_gimnastika_DVDRip_xvid_ru.avi
Format : AVI
Format/Info : Audio Video Interleave
File size : 691 MiB
Duration : 1h 28mn
Overall bit rate : 1 089 Kbps
Writing application : VirtualDubMod 1.5.10.1 (build 2366/release)
Writing library : VirtualDub build 24469/release
Video
ID : 0
Format : MPEG-4 Visual
Format settings, BVOP : 2
Format settings, QPel : No
Format settings, GMC : No warppoints
Format settings, Matrix : Default (H.263)
Muxing mode : Packed bitstream
Codec ID : DX50
Codec ID/Hint : DivX 5
Duration : 1h 28mn
Bit rate : 967 Kbps
Width : 480 pixels
Height : 352 pixels
Display aspect ratio : 4:3
Frame rate : 25.000 fps
Color space : YUV
Chroma subsampling : 4:2:0
Bit depth : 8 bits
Scan type : Progressive
Compression mode : Lossy
Bits/(Pixel*Frame) : 0.229
Stream size : 614 MiB (89%)
Writing library : DivX 6.1.0 (UTC 2005-12-12)
Audio
ID : 1
Format : MPEG Audio
Format version : Version 1
Format profile : Layer 3
Mode : Joint stereo
Mode extension : MS Stereo
Codec ID : 55
Codec ID/Hint : MP3
Duration : 1h 28mn
Bit rate mode : Constant
Bit rate : 112 Kbps
Channel(s) : 2 channels
Sampling rate : 48.0 KHz
Compression mode : Lossy
Stream size : 71.1 MiB (10%)
Alignment : Aligned on interleaves
Interleave, duration : 40 ms (1.00 video frame)
Interleave, preload duration : 504 ms
- -


Показать сообщения:    

Текущее время: 15-Дек 04:45

Часовой пояс: UTC ± 0


Вы не можете начинать темы
Вы не можете отвечать на сообщения
Вы не можете редактировать свои сообщения
Вы не можете удалять свои сообщения
Вы не можете голосовать в опросах
Вы не можете прикреплять файлы к сообщениям
Вы не можете скачивать файлы

!ВНИМАНИЕ!
Сайт не предоставляет электронные версии произведений, а занимается лишь коллекционированием и каталогизацией ссылок, присылаемых и публикуемых на форуме нашими читателями. Если вы являетесь правообладателем какого-либо представленного материала и не желаете, чтобы ссылка на него находилась в нашем каталоге, свяжитесь с нами, и мы незамедлительно удалим ее. Файлы для обмена на трекере предоставлены пользователями сайта, и администрация не несет ответственности за их содержание. Просьба не заливать файлы, защищенные авторскими правами, а также файлы нелегального содержания!