Ивановский Торрент трекер
Яндекс.Погода
 

[Цитировать]
HUNTER

Супер Мазинга 3 / Галактические захватчики / Super Majingga 3 / Raiders Of Galaxy
Страна: South Korea / Adda Audio Visual Ltd. (продюссер Джозеф Лай)
Жанр: приключения, фантастика, меха
Продолжительность: 01:03:03
Год выпуска: 1982
Перевод: Одноголосый закадровый (Трамвай-фильм)
Русские субтитры: нет
Режиссёр: Сёг Чёл Пак / Seung-cheol Park
Описание: Известен миру так же как "Супер Мазинга 3"
Группа подростков на боевом роботе Супер Мазинга 3 противостоит злобному президенту Андромеды, который намеревается покорить Землю для своего таинственного покровителя-демона.
Семпл: http://multi-up.com/1020681

Качество: VHSRip
Формат: AVI
Видео: Xvid, 512x384, 29.97fps, 1 543 Кбит/с
Аудио: MP3, 44100Hz, stereo, 128 Кбит/с
Субтитры: отсутствуют

Подробные технические данные

ОбщееПолное имя : E:\Download\Raiders.Of.Galaxy.Tramvai.film.aviФормат : AVIФормат/Информация : Audio Video InterleaveРазмер файла : 762 МбайтПродолжительность : 1 ч. 3 м.Общий поток : 1689 Кбит/сек
ВидеоИдентификатор : 0Формат : MPEG-4 VisualПрофиль формата : Simple@L3Параметр BVOP формата : НетПараметр QPel формата : НетПараметр GMC формата : Без точки переходаПараметр матрицы формата : Default (H.263)Идентификатор кодека : XVIDИдентификатор кодека/Подсказка : XviDПродолжительность : 1 ч. 3 м.Битрейт : 1543 Кбит/секШирина : 512 пикселейВысота : 384 пикселяСоотношение сторон : 4:3Частота кадров : 29,970 кадров/секЧастота кадров в оригинале : 29,000 кадров/секЦветовое пространство : YUVСубдискретизация насыщенности : 4:2:0Битовая глубина : 8 битТип развёртки : ПрогрессивнаяМетод сжатия : С потерямиБит/(Пиксели*Кадры) : 0.262Размер потока : 696 Мбайт (91%)Библиотека кодирования : XviD 1.2.1 (UTC 2008-12-04)
АудиоИдентификатор : 1Формат : MPEG AudioВерсия формата : Version 1Профиль формата : Layer 3Режим : Joint stereoРасширение режима : MS StereoИдентификатор кодека : 55Идентификатор кодека/Подсказка : MP3Продолжительность : 1 ч. 3 м.Вид битрейта : ПостоянныйБитрейт : 128 Кбит/секКаналы : 2 каналаЧастота : 44,1 КГцМетод сжатия : С потерямиРазмер потока : 57,7 Мбайт (8%)Выравнивание : Соединение по промежуткамПродолжительность промежутка : 26 мс. (0,78 видеокадр)Библиотека кодирования : LAME3.98.2

Скриншоты

Показать сообщения:    

Текущее время: 20-Сен 04:49

Часовой пояс: UTC - 1


Вы не можете начинать темы
Вы не можете отвечать на сообщения
Вы не можете редактировать свои сообщения
Вы не можете удалять свои сообщения
Вы не можете голосовать в опросах
Вы не можете прикреплять файлы к сообщениям
Вы не можете скачивать файлы

!ВНИМАНИЕ!
Сайт не предоставляет электронные версии произведений, а занимается лишь коллекционированием и каталогизацией ссылок, присылаемых и публикуемых на форуме нашими читателями. Если вы являетесь правообладателем какого-либо представленного материала и не желаете, чтобы ссылка на него находилась в нашем каталоге, свяжитесь с нами, и мы незамедлительно удалим ее. Файлы для обмена на трекере предоставлены пользователями сайта, и администрация не несет ответственности за их содержание. Просьба не заливать файлы, защищенные авторскими правами, а также файлы нелегального содержания!