Важное объявление!
У Нас Все раздачи мультитрекерные, при нуле пиров в релизах, можете смело вставать на закачку!
 
Автор Сообщение

HUNTER

Стаж:
4 года 10 месяцев
Сообщений:
65473

Репутация: 101

[+] [-]
Вне форума [Профиль] [ЛС]

Суперпапа / Superdad
Страна: США
Студия: Walt Disney Productions
Жанр: комедия, семейный
Год выпуска: 1973
Продолжительность: 01:35:10
Перевод: Авторский (одноголосый закадровый) А. Дольский
Cубтитры: английские
Оригинальная аудиодорожка: английский
Режиссер: Винсент МакЭвити / Vincent McEveety
В ролях: Боб Крэйн, Курт Рассел, Барбара Раш, Джо Флинн, Кэтлин Коуди, Джоби Бэйкер, Дик Ван Пэттен, Бруно Кёрби, Джудит Лоури, Айвор Френсис
Описание: Недовольный компанией, с которой водится его дочь Венди, Чарли МакКрэди решает разлучить старых друзей. Узнав, что все они после школы собираются поступать в один и тот же колледж, Чарли специально делает так, чтобы его дочь поступила в другое учебное заведение. Однако Венди вскоре узнаёт о его проделках и решает назло отцу начать встречаться с парнем-хиппи.

Sample
Тип релиза: WEB-DL 720p
Контейнер: MKV
Видео: MPEG4 AVC Video, H264, 16:9, 1280x688, 23.976 fps, 4055 kbps
Аудио: Russian (AC3, 2 ch, 192 kbps, 16 bits, 48.0 KHz) - А. Дольский
Аудио 2: English (AC3, 2 ch, 192 kbps, 16 bits, 48.0 KHz) - оригинал
Формат субтитров: softsub (SRT)

MediaInfo

General
Unique ID : 173599393703271575818242619416224025160 (0x829A06EDCD2265C598E5E42F858D4A48)
Complete name : E:\1\Superdad 1973 WEB-DL 720p.mkv
Format : Matroska
Format version : Version 4 / Version 2
File size : 3.01 GiB
Duration : 1h 35mn
Overall bit rate : 4 529 Kbps
Encoded date : UTC 2015-06-15 13:03:26
Writing application : mkvmerge v6.1.0 ('Old Devil') built on Mar 2 2013 14:32:37
Writing library : libebml v1.3.0 + libmatroska v1.4.0
Video
ID : 1
Format : AVC
Format/Info : Advanced Video Codec
Format profile : High@L3.1
Format settings, CABAC : No
Format settings, ReFrames : 2 frames
Codec ID : V_MPEG4/ISO/AVC
Duration : 1h 35mn
Bit rate : 4 055 Kbps
Width : 1 280 pixels
Height : 688 pixels
Display aspect ratio : 1.85:1
Frame rate mode : Constant
Frame rate : 23.976 fps
Color space : YUV
Chroma subsampling : 4:2:0
Bit depth : 8 bits
Scan type : Progressive
Bits/(Pixel*Frame) : 0.192
Stream size : 2.70 GiB (90%)
Language : English
Default : Yes
Forced : No
Color primaries : BT.709
Transfer characteristics : BT.709
Matrix coefficients : BT.709
Audio #1
ID : 2
Format : AC-3
Format/Info : Audio Coding 3
Mode extension : CM (complete main)
Format settings, Endianness : Big
Codec ID : A_AC3
Duration : 1h 35mn
Bit rate mode : Constant
Bit rate : 192 Kbps
Channel count : 2 channels
Channel positions : Front: L R
Sampling rate : 48.0 KHz
Bit depth : 16 bits
Compression mode : Lossy
Stream size : 131 MiB (4%)
Language : Russian
Default : Yes
Forced : Yes
Audio #2
ID : 3
Format : AC-3
Format/Info : Audio Coding 3
Mode extension : CM (complete main)
Format settings, Endianness : Big
Codec ID : A_AC3
Duration : 1h 35mn
Bit rate mode : Constant
Bit rate : 192 Kbps
Channel count : 2 channels
Channel positions : Front: L R
Sampling rate : 48.0 KHz
Bit depth : 16 bits
Compression mode : Lossy
Stream size : 131 MiB (4%)
Language : English
Default : No
Forced : No
Text
ID : 4
Format : UTF-8
Codec ID : S_TEXT/UTF8
Codec ID/Info : UTF-8 Plain Text
Language : English
Default : No
Forced : No
Menu
00:00:00.000 : en:Opening Credits
00:03:19.000 : en:My Little Girl
00:06:49.000 : en:Going Back to L.A.
00:14:34.000 : en:At The Beach With Dad
00:24:02.000 : en:Funny Movie
00:30:07.000 : en:Family Problem
00:38:46.000 : en:Mother Barlow's Boarding House
00:45:57.000 : en:Register With Claude Archer
00:53:29.000 : en:Roger Is Just My Dad's Type
00:59:02.000 : en:Wendy Is Missing
01:04:30.000 : en:Hershberger
01:10:13.000 : en:Wendy's Little Problem
01:14:17.000 : en:Strightening Out The Problem
01:19:37.000 : en:Klutch
01:26:27.000 : en:Getting To The Church
01:31:33.000 : en:Bart & Wendy's Wedding

Скриншоты


_________________
Показать сообщения:    

Текущее время: Сегодня 02:10

Часовой пояс: GMT



Вы не можете начинать темы
Вы не можете отвечать на сообщения
Вы не можете редактировать свои сообщения
Вы не можете удалять свои сообщения
Вы не можете голосовать в опросах
Вы не можете прикреплять файлы к сообщениям
Вы не можете скачивать файлы