Ивановский Торрент трекер
Яндекс.Погода
 

[Цитировать]
HUNTER

Супермен против Элиты / Superman vs. The Elite -«World saved. Humanity lost.»-
Год выпуска: 2012
Страна: США
Жанр: мультфильм, боевик, фантастика
Продолжительность: 01:14:13-Перевод : Профессиональный (дублированный) «CP Дистрибуция»
Субтитры: английские (utf-8 в контейнере) отключаемые
Режиссер: Майкл Чанг
В ролях: Поли Перретт, Джордж Ньюберн, Робин Аткин Даунс, Дэвид Кауфман, Джули Уитнер и др.-Описание: Разразилась новая катастрофа, и Супермен опять устремляется в бой. На этот раз помочь ему решила команда супергероев, называющих себя «Элита». Вооруженный отряд из четырех могучих существ возглавляет дерзкий и расчетливый Манчестер Блэк. Однако у новоявленных любимцев публики довольно жестокие методы борьбы со злом, так что на фоне «Элиты» Супермен выглядит одиноким и морально устаревшим.-Доп. информация: Раздаю каждый день по 15 часов в сутки! Ночью я сплю, как и мой комп!

Качество: BDRip
Формат: MKV
Видео кодек: V_MPEG4
Аудио кодек: AC-3, DTS, AAC
Видео: AVC, 1280x720, 23.976fps, ~3080Kbps
Аудио 1: AC-3, 48000Hz, 2.0, 192kbps - Дубляж [Лицензия]
Аудио 2: DTS, 48000Hz, 5.1, 1510kbps - Оригинал
Аудио 3: AAC, 48000Hz, 2.0, 64kbps - Комментарии-

Данные MediaInfo

G:\Berserk\torrents.ru\Supermen.protiv.Jelity.2012.BDRip.720p.mkv
General
Unique ID : 230168748278468954527883684517462780011 (0xAD28E371EDBB957BA462DD8977FDA86B)
Complete name : G:\Berserk\torrents.ru\Supermen.protiv.Jelity.2012.BDRip.720p.mkv
Format : Matroska
File size : 2.55 GiB
Duration : 1h 14mn
Overall bit rate : 4 895 Kbps
Movie name : IRONCLUB
Encoded date : UTC 2012-06-22 18:44:13
Writing application : mkvmerge v4.9.1 ('Ich will') built on Jul 11 2011 23:53:15
Writing library : libebml v1.2.1 + libmatroska v1.1.1
Video #1
ID : 1
Format : AVC
Format/Info : Advanced Video Codec
Format profile : High@L4.1
Format settings, CABAC : Yes
Format settings, ReFrames : 9 frames
Codec ID : V_MPEG4/ISO/AVC
Duration : 1h 14mn
Width : 1 280 pixels
Height : 720 pixels
Display aspect ratio : 16:9
Frame rate : 23.976 fps
Color space : YUV
Chroma subsampling : 4:2:0
Bit depth : 8 bits
Scan type : Progressive
Title : Superman vs. The Elite 2012
Writing library : x264 core 125 r2200 999b753
Encoding settings : cabac=1 / ref=9 / deblock=1:-3:-3 / analyse=0x3:0x113 / me=tesa / subme=11 / psy=1 / psy_rd=0.60:0.00 / mixed_ref=1 / me_range=16 / chroma_me=1 / trellis=2 / 8x8dct=1 / cqm=0 / deadzone=21,11 / fast_pskip=0 / chroma_qp_offset=-2 / threads=12 / lookahead_threads=2 / sliced_threads=0 / nr=0 / decimate=0 / interlaced=0 / bluray_compat=0 / constrained_intra=0 / bframes=9 / b_pyramid=2 / b_adapt=2 / b_bias=0 / direct=3 / weightb=1 / open_gop=0 / weightp=2 / keyint=250 / keyint_min=23 / scenecut=40 / intra_refresh=0 / rc=crf / mbtree=0 / crf=16.3 / qcomp=0.60 / qpmin=0 / qpmax=69 / qpstep=4 / ip_ratio=1.40 / pb_ratio=1.30 / aq=1:0.85
Language : English
Matrix coefficients : BT.709-5, BT.1361, IEC 61966-2-4 709, SMPTE RP177
Audio #2
ID : 2
Format : AC-3
Format/Info : Audio Coding 3
Mode extension : CM (complete main)
Codec ID : A_AC3
Duration : 1h 14mn
Bit rate mode : Constant
Bit rate : 192 Kbps
Channel(s) : 2 channels
Channel positions : Front: L R
Sampling rate : 48.0 KHz
Bit depth : 16 bits
Compression mode : Lossy
Stream size : 102 MiB (4%)
Title : DD 2.0 @ 192 kbps - Dub, R5
Language : Russian
Audio #3
ID : 3
Format : DTS
Format/Info : Digital Theater Systems
Codec ID : A_DTS
Duration : 1h 14mn
Bit rate mode : Constant
Bit rate : 1 510 Kbps
Channel(s) : 6 channels
Channel positions : Front: L C R, Side: L R, LFE
Sampling rate : 48.0 KHz
Bit depth : 24 bits
Compression mode : Lossy
Stream size : 804 MiB (31%)
Language : English
Audio #4
ID : 4
Format : AAC
Format/Info : Advanced Audio Codec
Format profile : HE-AAC / LC
Codec ID : A_AAC
Duration : 1h 14mn
Channel(s) : 2 channels
Channel positions : Front: L R
Sampling rate : 48.0 KHz / 24.0 KHz
Compression mode : Lossy
Delay relative to video : 31ms
Title : Commentary
Language : English
Text #5
ID : 5
Format : UTF-8
Codec ID : S_TEXT/UTF8
Codec ID/Info : UTF-8 Plain Text
Language : English

Скриншоты






Показать сообщения:    

Текущее время: 14-Дек 22:56

Часовой пояс: UTC ± 0


Вы не можете начинать темы
Вы не можете отвечать на сообщения
Вы не можете редактировать свои сообщения
Вы не можете удалять свои сообщения
Вы не можете голосовать в опросах
Вы не можете прикреплять файлы к сообщениям
Вы не можете скачивать файлы

!ВНИМАНИЕ!
Сайт не предоставляет электронные версии произведений, а занимается лишь коллекционированием и каталогизацией ссылок, присылаемых и публикуемых на форуме нашими читателями. Если вы являетесь правообладателем какого-либо представленного материала и не желаете, чтобы ссылка на него находилась в нашем каталоге, свяжитесь с нами, и мы незамедлительно удалим ее. Файлы для обмена на трекере предоставлены пользователями сайта, и администрация не несет ответственности за их содержание. Просьба не заливать файлы, защищенные авторскими правами, а также файлы нелегального содержания!