Важное объявление!
У Нас Все раздачи мультитрекерные, при нуле пиров в релизах, можете смело вставать на закачку!
Статистика раздачи
Размер:     |    Зарегистрирован:     |    Скачан:     |   
Нет
 
     
 
 
Автор Сообщение

HUNTER

Стаж:
5 лет
Сообщений:
67910

Репутация: 101

[+] [-]
Вне форума [Профиль] [ЛС]

Супермен: Непобежденный / Superman: Unbound-
Год выпуска: 2013
Страна: США
Жанр: мультфильм, боевик, приключения
Продолжительность: 01:15:17
Перевод 1: Профессиональный (полное дублирование) R5
Перевод 2: Профессиональный (многоголосый, закадровый)
Оригинальная звуковая дорожка: English
Субтитры: 2xRussian,English-Режиссер: Джеймс Такер / James Tucker
Роли озвучивали: Мэтт Бомер, Стана Катич, Джон Ноубл, Молли С. Куинн, Дидрих Бадер, Джейсон Бех, Фрэнсис Конрой, Йен Джеймс Корлетт, Мелисса Дисней, Александр Гоулд
Описание: К городу приближается несокрушимый андроид. К Земле приближается огненный шар. Бесстрашная красавица-журналистка приближается к своей цели - сделать об этом репортаж. Это самый обычный день для Человека из стали, только на этот раз плечом к плечу с ним сражается его двоюродная сестра, Супердевушка. Приключения начинаются, когда Супермен узнаёт о том, что силы безжалостного Брэйниака смогли уменьшить и захватить Кандор, столицу планеты Криптон. Супермен намерен во что бы то ни стало освободить порабощенную метрополию и защитить родную планету от растущего могущества Брэйниака.-Релиз:
Формат: MKV
Видео: 1280x720 at 23.976 fps, x264@L4.1, crf, ~3701 kbps avg
Аудио #1: Russian: 48 kHz, AC3, 2/0 (L,R) ch, ~192 kbps avg |Дубляж, R5|
Аудио #2: Russian: 48 kHz, DTS, 3/2 (L,C,R,l,r) + LFE ch, ~1536 kbps avg |Многоголосый закадровый|
Аудио #3: English: 48 kHz, DTS, 3/2 (L,C,R,l,r) + LFE ch, ~1536 kbps avg
Семпл-

Source vs Encode




-

mInfo

Complete name : D:\Superman.Unbound.2013.720р.BluRay.2xRus.Eng.HDCLUB-xmad.mkv
Format : Matroska
Format version : Version 4 / Version 2
File size : 3.71 GiB
Duration : 1h 15mn
Overall bit rate : 7 053 Kbps
Movie name : Superman:Unbound (2013) - Release for HDCLUB
Encoded date : UTC 2013-06-22 08:28:20
Writing application : mkvmerge v6.2.0 ('Promised Land') built on Apr 28 2013 12:22:01
Writing library : libebml v1.3.0 + libmatroska v1.4.0
Video
ID : 1
Format : AVC
Format/Info : Advanced Video Codec
Format profile : High@L4.1
Format settings, CABAC : Yes
Format settings, ReFrames : 8 frames
Codec ID : V_MPEG4/ISO/AVC
Duration : 1h 15mn
Bit rate : 3 701 Kbps
Width : 1 280 pixels
Height : 720 pixels
Display aspect ratio : 16:9
Frame rate : 23.976 fps
Color space : YUV
Chroma subsampling : 4:2:0
Bit depth : 8 bits
Scan type : Progressive
Bits/(Pixel*Frame) : 0.167
Stream size : 1.95 GiB (52%)
Title : Release for HDCLUB
Writing library : x264 core 133 r2334 a3ac64b
Encoding settings : cabac=1 / ref=8 / deblock=1:-1:-1 / analyse=0x3:0x133 / me=tesa / subme=11 / psy=1 / psy_rd=0.80:0.00 / mixed_ref=1 / me_range=48 / chroma_me=1 / trellis=2 / 8x8dct=1 / cqm=0 / deadzone=21,11 / fast_pskip=0 / chroma_qp_offset=-2 / threads=12 / lookahead_threads=3 / sliced_threads=0 / nr=0 / decimate=1 / interlaced=0 / bluray_compat=0 / constrained_intra=0 / bframes=10 / b_pyramid=2 / b_adapt=2 / b_bias=0 / direct=3 / weightb=1 / open_gop=0 / weightp=2 / keyint=240 / keyint_min=24 / scenecut=40 / intra_refresh=0 / rc_lookahead=60 / rc=crf / mbtree=0 / crf=14.0 / qcomp=0.60 / qpmin=0 / qpmax=69 / qpstep=4 / vbv_maxrate=62500 / vbv_bufsize=78125 / crf_max=0.0 / nal_hrd=none / ip_ratio=1.40 / pb_ratio=1.30 / aq=1:0.80
Language : English
Default : Yes
Forced : No
Color primaries : BT.709-5, BT.1361, IEC 61966-2-4, SMPTE RP177
Transfer characteristics : BT.709-5, BT.1361
Matrix coefficients : BT.709-5, BT.1361, IEC 61966-2-4 709, SMPTE RP177
Audio #1
ID : 2
Format : AC-3
Format/Info : Audio Coding 3
Format profile : Dolby Digital
Mode extension : CM (complete main)
Codec ID : A_AC3
Duration : 1h 15mn
Bit rate mode : Constant
Bit rate : 192 Kbps
Channel(s) : 2 channels
Channel positions : Front: L R
Sampling rate : 48.0 KHz
Bit depth : 16 bits
Compression mode : Lossy
Stream size : 103 MiB (3%)
Title : (AC3 2.0 @ 192 kbps - Дубляж,R5)
Language : Russian
Default : Yes
Forced : No
Audio #2
ID : 3
Format : DTS
Format/Info : Digital Theater Systems
Codec ID : A_DTS
Duration : 1h 15mn
Bit rate mode : Constant
Bit rate : 1 510 Kbps
Channel(s) : 6 channels
Channel positions : Front: L C R, Side: L R, LFE
Sampling rate : 48.0 KHz
Bit depth : 24 bits
Compression mode : Lossy
Stream size : 813 MiB (21%)
Title : (DTS 5.1 @ 1510 kbps - Многоголосый закадровый)
Language : Russian
Default : No
Forced : No
Audio #3
ID : 4
Format : DTS
Format/Info : Digital Theater Systems
Codec ID : A_DTS
Duration : 1h 15mn
Bit rate mode : Constant
Bit rate : 1 510 Kbps
Channel(s) : 6 channels
Channel positions : Front: L C R, Side: L R, LFE
Sampling rate : 48.0 KHz
Bit depth : 24 bits
Compression mode : Lossy
Stream size : 813 MiB (21%)
Title : (DTS 5.1 @ 1510 kbps - Original)
Language : English
Default : No
Forced : No
Text #1
ID : 5
Format : UTF-8
Codec ID : S_TEXT/UTF8
Codec ID/Info : UTF-8 Plain Text
Title : SRT
Language : Russian
Default : No
Forced : No
Text #2
ID : 6
Format : UTF-8
Codec ID : S_TEXT/UTF8
Codec ID/Info : UTF-8 Plain Text
Title : SRT
Language : Russian
Default : No
Forced : No
Text #3
ID : 7
Format : UTF-8
Codec ID : S_TEXT/UTF8
Codec ID/Info : UTF-8 Plain Text
Title : SRT
Language : English
Default : No
Forced : No
Menu
00:00:00.000 : en:00:00:00.000
00:10:05.980 : en:00:10:05.980
00:19:54.485 : en:00:19:54.485
00:29:17.464 : en:00:29:17.464
00:40:29.886 : en:00:40:29.886
00:50:07.504 : en:00:50:07.504
00:59:47.667 : en:00:59:47.667
01:09:30.375 : en:01:09:30.375

-

mInfo

frame I:1290 Avg QP: 8.00 size:132795
frame P:32499 Avg QP: 9.85 size: 37960
frame B:74476 Avg QP:10.76 size: 10233
consecutive B-frames: 6.4% 9.7% 7.9% 58.3% 5.6% 4.1% 1.3% 4.3% 0.5% 0.8% 1.1%

-
Цитата:
Цитата:

* Сохранены оригинальные главы как на Blu-ray.
* Дорожка №2 - Перевод: Николай Некрасов. Закадровые голоса: Дмитрий Лунев, Олег Варганов, Кирилл Лавров, Ольга Гринтиева

_________________
Показать сообщения:    

Текущее время: Сегодня 04:45

Часовой пояс: GMT



Вы не можете начинать темы
Вы не можете отвечать на сообщения
Вы не можете редактировать свои сообщения
Вы не можете удалять свои сообщения
Вы не можете голосовать в опросах
Вы не можете прикреплять файлы к сообщениям
Вы не можете скачивать файлы