Важное объявление!
У Нас Все раздачи мультитрекерные, при нуле пиров в релизах, можете смело вставать на закачку!
 
Автор Сообщение

HUNTER

Стаж:
4 года 8 месяцев
Сообщений:
62060

Репутация: 101

[+] [-]
Вне форума [Профиль] [ЛС]


Супермастерство и удары головой-Год выпуска: 2000
Страна: USA
Сайт производителя: нету
Тематика: Футбол
Тип материала: обучающая видеопрограмма--Продолжительность: 00:55:53
Автор: Хьюберт Вогельзингер--Язык: Русский (Профессиональный (одноголосый))
Субтитры: отсутствуют-Описание: Огромное количество молодых футболистов во всех странах мира с наслаждением учатся основам футбольной техники по методике популярного тренера по футболу Губерта Фогельзингера. Сейчас эту возможность получили и Вы. Ведь серия “Футбольный видеотренер” – это пропуск в мир большого футбола.
В регионах РФ не достаточно специализированных футбольных школ и обученных футбольных тренеров. Обучающее видео не решает данной трудности, но находит выход из сложившейся ситуации – ребенок с огромным желанием начнет заниматься футболом и будет играть классно!
-Качество: VHSRip
Формат: AVI
Видео кодек: DivX
Аудио кодек: MP3
Видео: 640x480 (1.33:1), 23.976 fps, DivX Codec 4.x ~946 kbps avg, 0.13 bit/pixel
Аудио: 44.100 kHz, MPEG Layer 3, 2 ch, ~128.00 kbps avg-

Доп. информация

"СУПЕРМАСТЕРСТВО И УДАРЫ ГОЛОВОЙ" - в динамичной и увлекательной форме с помощью поэтапного метода научит Вас мастерски обращаться с мячом, творить маленькие чудеса на футбольном поле, а при подаче угловых или пробитии штрафных наводить ужас на вратарей своими ударами головой.

Содержание

В программе представлены 4 части:
1. Дриблинг и финты
2. Контроль мяча
3. Удары
4. Супермастерство и удары головой

MediaInfo

Код: copyText_writeLink('this.parentNode.parentNode.nextSibling.nextSibling'); Общее
Полное имя : D:\обуч\udari_golovoj\Супермастерство и удары головой. (Губерт Фогельзингер).avi
Формат : AVI
Формат/Информация : Audio Video Interleave
Размер файла : 435 Мбайт
Продолжительность : 55 м.
Общий поток : 1087 Кбит/сек
Программа кодирования : Lavf52.32.0
Видео
Идентификатор : 0
Формат : MPEG-4 Visual
Профиль формата : Simple@L1
Параметр BVOP формата : Нет
Параметр QPel формата : Нет
Параметр GMC формата : Без точки перехода
Параметр матрицы формата : Default (H.263)
Идентификатор кодека : DIVX
Идентификатор кодека/Информация : Project Mayo
Идентификатор кодека/Подсказка : DivX 4
Продолжительность : 55 м.
Битрейт : 947 Кбит/сек
Ширина : 640 пикселей
Высота : 480 пикселей
Соотношение сторон : 4:3
Частота кадров : 23,976 кадра/сек
Цветовое пространство : YUV
Субдискретизация насыщенности : 4:2:0
Битовая глубина : 8 бит
Тип развёртки : Прогрессивная
Метод сжатия : С потерями
Бит/(Пиксели*Кадры) : 0.129
Размер потока : 379 Мбайт (87%)
Библиотека кодирования : Lavc52.22.3
Аудио
Идентификатор : 1
Формат : MPEG Audio
Версия формата : Version 1
Профиль формата : Layer 3
Режим : Joint stereo
Расширение режима : MS Stereo
Идентификатор кодека : 55
Идентификатор кодека/Подсказка : MP3
Продолжительность : 55 м.
Вид битрейта : Постоянный
Битрейт : 128 Кбит/сек
Каналы : 2 канала
Частота : 44,1 КГц
Метод сжатия : С потерями
Размер потока : 51,2 Мбайт (12%)
Выравнивание : Соединение по промежуткам
Продолжительность промежутка : 26 мс. (0,63 видеокадр)
Библиотека кодирования : LAME3.98.2

Скриншоты

-

_________________
Показать сообщения:    

Текущее время: Сегодня 06:11

Часовой пояс: GMT



Вы не можете начинать темы
Вы не можете отвечать на сообщения
Вы не можете редактировать свои сообщения
Вы не можете удалять свои сообщения
Вы не можете голосовать в опросах
Вы не можете прикреплять файлы к сообщениям
Вы не можете скачивать файлы
Наши партнеры: интернет магазин Ивановского трикотажа textilla.ru