Суперкнига / Superbook (Брайанн Ричарсон / Brian Richarson) [2013, Анимация, BDRip] Dub :: Ивановский Торрент трекер
Важное объявление!
У Нас Все раздачи мультитрекерные, при нуле пиров в релизах, можете смело вставать на закачку!
Статистика раздачи
Размер:     |    Зарегистрирован:     |    Скачан:     |   
Нет
 
     
 
 
Автор Сообщение

HUNTER

Стаж:
4 года 11 месяцев
Сообщений:
66054

Репутация: 101

[+] [-]
Вне форума [Профиль] [ЛС]

Суперкнига / Superbook
Страна: США
Жанр: Анимация
Продолжительность: 01:13:18
Год выпуска: 2013
Перевод: Профессиональный (дублированный)
Русские субтитры: нет
Режиссёр: Брайанн Ричарсон / Brian Richarson
Роли озвучивали: Коллесников Антон
Описание: В раздаче представлены 3 серии мультфильма Суперкнига. Ключевыми событиями являются смерть и воскресение Иисуса Христа. Также показываются факты, предшествующие этим событиям: чудеса Иисуса, тайная вечеря. По Евангелии Матвея 21-28.
Качество: BDRip
Формат: MP4
Видео: AVC, 1024x576 (16:9), 25.000 fps, 2448 kbps
Аудио: AAC, 44,1 KHz, 2 ch, 128 kbps
Субтитры: отсутствует
Подробные технические данные
Формат : MPEG-4Профиль формата : Base Media / Version 2Идентификатор кодека : mp42Размер файла : 1,32 ГбайтПродолжительность : 1 ч. 13 м.Общий поток : 2581 Кбит/секДата кодирования : UTC 2014-04-11 07:42:05Дата пометки : UTC 2014-04-11 07:42:50
ВидеоИдентификатор : 1Формат : AVCФормат/Информация : Advanced Video CodecПрофиль формата : Main@L3.1Параметр CABAC формата : НетПараметр ReFrames формата : 2 кадраПараметр GOP формата : M=2, N=125Идентификатор кодека : avc1Идентификатор кодека/Информация : Advanced Video CodingПродолжительность : 1 ч. 13 м.Битрейт : 2448 Кбит/секШирина : 1024 пикселяВысота : 576 пикселейСоотношение сторон : 16:9Режим частоты кадров : ПостоянныйЧастота кадров : 25,000 кадров/секЦветовое пространство : YUVСубдискретизация насыщенности : 4:2:0Битовая глубина : 8 битТип развёртки : ПрогрессивнаяБит/(Пиксели*Кадры) : 0.166Размер потока : 1,25 Гбайт (95%)Язык : EnglishДата кодирования : UTC 2014-04-11 07:42:01Дата пометки : UTC 2014-04-11 07:42:50Основные цвета : BT.709Характеристики трансфера : BT.709Коэффициенты матрицы : BT.709
АудиоИдентификатор : 2Формат : AACФормат/Информация : Advanced Audio CodecПрофиль формата : LCИдентификатор кодека : 40Продолжительность : 1 ч. 13 м.Вид битрейта : ПостоянныйБитрейт : 128 Кбит/секКаналы : 2 каналаРасположение каналов : Front: L RЧастота : 44,1 КГцМетод сжатия : С потерямиЗадержка видео : 40 мс.Размер потока : 67,1 Мбайт (5%)Язык : EnglishДата кодирования : UTC 2014-04-11 07:42:01Дата пометки : UTC 2014-04-11 07:42:50
Скриншоты

_________________
Показать сообщения:    

Текущее время: Сегодня 03:55

Часовой пояс: GMT



Вы не можете начинать темы
Вы не можете отвечать на сообщения
Вы не можете редактировать свои сообщения
Вы не можете удалять свои сообщения
Вы не можете голосовать в опросах
Вы не можете прикреплять файлы к сообщениям
Вы не можете скачивать файлы