Ивановский Торрент трекер
Яндекс.Погода
 

[Цитировать]
HUNTER

Супербратья Марио / Super Mario Bros.
Страна: США, Великобритания
Жанр: фантастика, фэнтези, боевик, комедия
Год выпуска: 1993
Продолжительность: 01:44:43
-
Перевод 1: Профессиональный (многоголосый закадровый) R5
Перевод 2: Профессиональный (двухголосый закадровый) Екатеринбург Арт
Перевод 3: Авторский (одноголосый закадровый) Алексей Михалев
Перевод 4: Авторский (одноголосый закадровый) Василий Горчаков
Перевод 5: Авторский (одноголосый закадровый) Антон Пронин
Перевод 6: Одноголосый закадровый
Cубтитры: русские (Full) и английские (SDH)
Оригинальная аудиодорожка: английский
-
Режиссер: Аннабел Джэнкел / Annabel Jankel, Рокки Мортон / Rocky Morton, Роланд Жоффе / Roland Joffe, Дин Семлер / Dean Semler (последние оба в титрах не указаны)
В ролях: Боб Хоскинс, Джон Легуизамо, Деннис Хоппер, Саманта Мэтис, Фишер Стивенс, Ричард Эдсон, Фиона Шоу, Дэна Камински, Моджо Никсон, Джанни Руссо
-
Описание: Два брата-водопроводчика из Бруклина, Марио Марио и Луиджи Марио, случайно обнаружили совершенно новое измерение. Это подземный мир, в котором правит жестокий тиран Купа, город, населенный людьми-ящерицами, прямыми потомками динозавров.Они жаждут освободиться из подземного плена и под предводительством Купы захватить всю Землю. Ключ к победе хранится в осколке хрустального метеорита, который как драгоценный амулет носит на шее прекрасная юная принцесса Дэйзи. Спасая принцессу, супербратья Марио должны заодно спасти и человеческую цивилизацию…
-
Доп. информация:
-
Сэмпл: https://www.sendspace.com/file/tpywy4
-
Тип релиза: BDRip 720p
Контейнер: MKV
Видео: 1280x690p (1.85:1), 24.000 fps, 6 200 Kbps
Аудио 1: русский / AC3 / 5.1 / 48 kHz / 448 kbps / 16 bit || R5
Аудио 2: русский / AC3 / 2.0 / 48 kHz / 192 kbps / 16 bit || ЕА
Аудио 3: русский / AC3 / 5.1 / 48 kHz / 448 kbps / 16 bit || Михалев
Аудио 4: русский / AC3 / 5.1 / 48 kHz / 448 kbps / 16 bit || Горчаков
Аудио 5: русский / AC3 / 5.1 / 48 kHz / 448 kbps / 16 bit || Пронин
Аудио 6: русский / AC3 / 5.1 / 48 kHz / 448 kbps / 16 bit || Неизвестный
Аудио 7: английский / AC3 / 5.1 / 48 kHz / 448 kbps / 16 bit || Original
Формат субтитров: softsub (SRT)
Главы: есть

Доп. информация

Рип от Painter (MediaClub) добавлено аудио №2 - http://rutracker.org/forum/viewtopic.php?t=4960463 и Пронин http://rutracker.org/forum/viewtopic.php?t=3750854 Всем авторам спасибо.

MediaInfo

General
Unique ID : 209062567547034386299141984561479825563 (0x9D47FC648718A0C9AA0AEA65DFA4389B)
Complete name : C:\Users\ALEX\Downloads\Фильмы\HD\Super Mario Bros.1993.BDRip.720p.6xRus.Eng.Subs.Chpt.mkv
Format : Matroska
Format version : Version 4 / Version 2
File size : 6.64 GiB
Duration : 1h 44mn
Overall bit rate : 9 075 Kbps
Movie name : Super Mario Bros. BDRip 720p
Encoded date : UTC 2015-06-07 15:47:36
Writing application : mkvmerge v6.6.0 ('The Edge Of The In Between') built on Dec 1 2013 17:55:00
Writing library : libebml v1.3.0 + libmatroska v1.4.1
Video
ID : 1
Format : AVC
Format/Info : Advanced Video Codec
Format profile : High@L4.1
Format settings, CABAC : Yes
Format settings, ReFrames : 9 frames
Codec ID : V_MPEG4/ISO/AVC
Duration : 1h 44mn
Bit rate : 6 200 Kbps
Width : 1 280 pixels
Height : 690 pixels
Display aspect ratio : 1.85:1
Frame rate mode : Constant
Frame rate : 24.000 fps
Color space : YUV
Chroma subsampling : 4:2:0
Bit depth : 8 bits
Scan type : Progressive
Bits/(Pixel*Frame) : 0.292
Stream size : 4.40 GiB (66%)
Title : = MediaClub = rip by Painter
Writing library : x264 core 142 r2409+42 04be48a tMod [8-bit@4:2:0 X86]
Encoding settings : cabac=1 / ref=9 / deblock=1:-3:-3 / analyse=0x3:0x133 / me=umh / subme=11 / psy=1 / fade_compensate=0.00 / psy_rd=1.00:0.30 / mixed_ref=1 / me_range=32 / chroma_me=1 / trellis=2 / 8x8dct=1 / cqm=0 / deadzone=21,11 / fast_pskip=0 / chroma_qp_offset=-4 / threads=6 / lookahead_threads=1 / sliced_threads=0 / nr=0 / decimate=0 / interlaced=0 / bluray_compat=0 / constrained_intra=0 / fgo=0 / bframes=9 / b_pyramid=2 / b_adapt=2 / b_bias=0 / direct=3 / weightb=1 / open_gop=0 / weightp=2 / keyint=240 / keyint_min=23 / scenecut=40 / intra_refresh=0 / rc=2pass / mbtree=0 / bitrate=6200 / ratetol=1.0 / qcomp=0.60 / qpmin=0:0:0 / qpmax=69:69:69 / qpstep=4 / cplxblur=20.0 / qblur=0.5 / ip_ratio=1.40 / pb_ratio=1.30 / aq=1:1.00 / aq-sensitivity=10.00 / aq-factor=1.00:1.00:1.00 / aq2=0 / aq3=0
Language : English
Default : Yes
Forced : No
Audio #1
ID : 2
Format : AC-3
Format/Info : Audio Coding 3
Mode extension : CM (complete main)
Format settings, Endianness : Big
Codec ID : A_AC3
Duration : 1h 44mn
Bit rate mode : Constant
Bit rate : 448 Kbps
Channel(s) : 6 channels
Channel positions : Front: L C R, Side: L R, LFE
Sampling rate : 48.0 KHz
Bit depth : 16 bits
Compression mode : Lossy
Stream size : 336 MiB (5%)
Title : MVO (R5)
Language : Russian
Default : Yes
Forced : No
Audio #2
ID : 3
Format : AC-3
Format/Info : Audio Coding 3
Mode extension : CM (complete main)
Format settings, Endianness : Big
Codec ID : A_AC3
Duration : 1h 44mn
Bit rate mode : Constant
Bit rate : 192 Kbps
Channel(s) : 2 channels
Channel positions : Front: L R
Sampling rate : 48.0 KHz
Bit depth : 16 bits
Compression mode : Lossy
Stream size : 144 MiB (2%)
Title : DVO (Екатеринбург Арт)
Language : Russian
Default : No
Forced : No
Audio #3
ID : 4
Format : AC-3
Format/Info : Audio Coding 3
Mode extension : CM (complete main)
Format settings, Endianness : Big
Codec ID : A_AC3
Duration : 1h 44mn
Bit rate mode : Constant
Bit rate : 448 Kbps
Channel(s) : 6 channels
Channel positions : Front: L C R, Side: L R, LFE
Sampling rate : 48.0 KHz
Bit depth : 16 bits
Compression mode : Lossy
Stream size : 336 MiB (5%)
Title : AVO (Алексей Михалев)
Language : Russian
Default : No
Forced : No
Audio #4
ID : 5
Format : AC-3
Format/Info : Audio Coding 3
Mode extension : CM (complete main)
Format settings, Endianness : Big
Codec ID : A_AC3
Duration : 1h 44mn
Bit rate mode : Constant
Bit rate : 448 Kbps
Channel(s) : 6 channels
Channel positions : Front: L C R, Side: L R, LFE
Sampling rate : 48.0 KHz
Bit depth : 16 bits
Compression mode : Lossy
Stream size : 336 MiB (5%)
Title : AVO (Василий Горчаков)
Language : Russian
Default : No
Forced : No
Audio #5
ID : 6
Format : AC-3
Format/Info : Audio Coding 3
Mode extension : CM (complete main)
Format settings, Endianness : Big
Codec ID : A_AC3
Duration : 1h 44mn
Bit rate mode : Constant
Bit rate : 448 Kbps
Channel(s) : 6 channels
Channel positions : Front: L C R, Side: L R, LFE
Sampling rate : 48.0 KHz
Bit depth : 16 bits
Compression mode : Lossy
Stream size : 336 MiB (5%)
Title : AVO (Антон Пронин)
Language : Russian
Default : No
Forced : No
Audio #6
ID : 7
Format : AC-3
Format/Info : Audio Coding 3
Mode extension : CM (complete main)
Format settings, Endianness : Big
Codec ID : A_AC3
Duration : 1h 44mn
Bit rate mode : Constant
Bit rate : 448 Kbps
Channel(s) : 6 channels
Channel positions : Front: L C R, Side: L R, LFE
Sampling rate : 48.0 KHz
Bit depth : 16 bits
Compression mode : Lossy
Stream size : 336 MiB (5%)
Title : VO
Language : Russian
Default : No
Forced : No
Audio #7
ID : 8
Format : AC-3
Format/Info : Audio Coding 3
Mode extension : CM (complete main)
Format settings, Endianness : Big
Codec ID : A_AC3
Duration : 1h 44mn
Bit rate mode : Constant
Bit rate : 448 Kbps
Channel(s) : 6 channels
Channel positions : Front: L C R, Side: L R, LFE
Sampling rate : 48.0 KHz
Bit depth : 16 bits
Compression mode : Lossy
Stream size : 336 MiB (5%)
Title : Original
Language : English
Default : No
Forced : No
Text #1
ID : 9
Format : UTF-8
Codec ID : S_TEXT/UTF8
Codec ID/Info : UTF-8 Plain Text
Title : Full
Language : Russian
Default : No
Forced : No
Text #2
ID : 10
Format : UTF-8
Codec ID : S_TEXT/UTF8
Codec ID/Info : UTF-8 Plain Text
Title : SDH
Language : English
Default : No
Forced : No
Menu
00:00:00.000 : en:00:00:00.000
00:07:02.083 : en:00:07:02.083
00:13:26.000 : en:00:13:26.000
00:17:38.917 : en:00:17:38.917
00:23:04.417 : en:00:23:04.417
00:28:05.333 : en:00:28:05.333
00:36:10.208 : en:00:36:10.208
00:45:44.875 : en:00:45:44.875
00:50:30.292 : en:00:50:30.292
00:57:25.542 : en:00:57:25.542
01:05:15.167 : en:01:05:15.167
01:11:38.792 : en:01:11:38.792
01:19:57.625 : en:01:19:57.625
01:24:14.542 : en:01:24:14.542
01:29:50.333 : en:01:29:50.333
01:38:23.250 : en:01:38:23.250
01:39:25.375 : en:01:39:25.375

Скриншоты

Показать сообщения:    

Текущее время: 20-Сен 17:29

Часовой пояс: UTC - 1


Вы не можете начинать темы
Вы не можете отвечать на сообщения
Вы не можете редактировать свои сообщения
Вы не можете удалять свои сообщения
Вы не можете голосовать в опросах
Вы не можете прикреплять файлы к сообщениям
Вы не можете скачивать файлы

!ВНИМАНИЕ!
Сайт не предоставляет электронные версии произведений, а занимается лишь коллекционированием и каталогизацией ссылок, присылаемых и публикуемых на форуме нашими читателями. Если вы являетесь правообладателем какого-либо представленного материала и не желаете, чтобы ссылка на него находилась в нашем каталоге, свяжитесь с нами, и мы незамедлительно удалим ее. Файлы для обмена на трекере предоставлены пользователями сайта, и администрация не несет ответственности за их содержание. Просьба не заливать файлы, защищенные авторскими правами, а также файлы нелегального содержания!