Ивановский Торрент трекер
Яндекс.Погода
 

[Цитировать]
HUNTER

Сумасшедший Домашний Жиросжигатель / Insane Home Fat Loss-
Год выпуска: 2012
Страна: США
Сайт производителя: отсутствуeт
Тематика: фитнес
Тип материала: Видеоурок-Продолжительность: 02:55:21
Автор: Майк Чанг-Язык: Английский
Субтитры: отсутствуют-Описание: Майк Чанг - тренер из техаса и ведущий каналов на Youtube insanehomefatloss и sixpackshortcuts
Короткие эффективные 20 минутные тренировки (9) без оборудования (дома) для сжигания жира и разгона метаболизма.
-Качество: DVDRip
Формат: MOV
Видео кодек: H.264
Аудио кодек: PCM
Видео: AVC, 720x480 (3:2), 3 758 Kbps, 24 fps, 0.425 Бит/(Пиксели*Кадры)
Аудио: PCM, 1 536 Kbps, 48.0 KHz, 2 channels, 16 бит-

MediaInfo

Код: copyText_writeLink('this.parentNode.parentNode.nextSibling.nextSibling'); Общее
Полное имя : D:\обучение 25,12\Новая папка\Insane Home Fat Loss\IHFL Day 6 - Upper Body Blaster (Chest, Back, Delts).mov
Формат : MPEG-4
Профиль формата : QuickTime
Идентификатор кодека : qt
Размер файла : 744 Мбайт
Продолжительность : 20 м.
Общий поток : 4986 Кбит/сек
Дата кодирования : UTC 2012-01-15 01:28:51
Дата пометки : UTC 2012-01-15 01:28:56
Библиотека кодирования : Apple QuickTime
Видео
Идентификатор : 2
Формат : AVC
Формат/Информация : Advanced Video Codec
Профиль формата : Main@L3.0
Параметр CABAC формата : Нет
Параметр ReFrames формата : 2 кадра
Параметр GOP формата : M=2, N=24
Идентификатор кодека : avc1
Идентификатор кодека/Информация : Advanced Video Coding
Продолжительность : 20 м.
Продолжительность оригинала : 25 м.
Source_Duration_LastFrame : 5 м. 4 с.
Битрейт : 3447 Кбит/сек
Ширина : 704 пикселя
Ширина оригинала : 720 пикселей
Высота : 480 пикселей
Соотношение сторон : 16:9
Соотношение сторон в оригинале : 3:2
Режим частоты кадров : Постоянный
Частота кадров : 24,000 кадра/сек
Стандарт вещания : NTSC
Цветовое пространство : YUV
Субдискретизация насыщенности : 4:2:0
Битовая глубина : 8 бит
Тип развёртки : Прогрессивная
Бит/(Пиксели*Кадры) : 0.425
Размер потока : 514 Мбайт (69%)
Размер потока оригинала : 514 Мбайт (69%)
Язык : English
Дата кодирования : UTC 2012-01-15 01:28:29
Дата пометки : UTC 2012-01-15 01:28:56
Основные цвета : BT.601 NTSC
Характеристики трансфера : BT.709
Коэффициенты матрицы : BT.601
Аудио
Идентификатор : 1
Формат : PCM
Параметр Endianness формата : Little
Параметр Sign формата : Signed
Идентификатор кодека : sowt
Продолжительность : 20 м.
Вид битрейта : Постоянный
Битрейт : 1536 Кбит/сек
Каналы : 2 канала
Расположение каналов : Front: L R
Частота : 48,0 КГц
Битовая глубина : 16 бит
Размер потока : 229 Мбайт (31%)
Язык : English
Дата кодирования : UTC 2012-01-15 01:28:29
Дата пометки : UTC 2012-01-15 01:28:56
- -
Показать сообщения:    

Текущее время: 19-Окт 19:06

Часовой пояс: UTC - 1


Вы не можете начинать темы
Вы не можете отвечать на сообщения
Вы не можете редактировать свои сообщения
Вы не можете удалять свои сообщения
Вы не можете голосовать в опросах
Вы не можете прикреплять файлы к сообщениям
Вы не можете скачивать файлы

!ВНИМАНИЕ!
Сайт не предоставляет электронные версии произведений, а занимается лишь коллекционированием и каталогизацией ссылок, присылаемых и публикуемых на форуме нашими читателями. Если вы являетесь правообладателем какого-либо представленного материала и не желаете, чтобы ссылка на него находилась в нашем каталоге, свяжитесь с нами, и мы незамедлительно удалим ее. Файлы для обмена на трекере предоставлены пользователями сайта, и администрация не несет ответственности за их содержание. Просьба не заливать файлы, защищенные авторскими правами, а также файлы нелегального содержания!