Важное объявление!
У Нас Все раздачи мультитрекерные, при нуле пиров в релизах, можете смело вставать на закачку!
 
Автор Сообщение

HUNTER

Стаж:
4 года 6 месяцев
Сообщений:
60923

Репутация: 101

[+] [-]
Вне форума [Профиль] [ЛС]

Сумасшедшие--
Год выпуска: 2013
Страна: США
Жанр: Комедия, ...-Продолжительность: 00:20:00-Перевод: Любительский (многоголосый дублированный){Saint Sound}, Оригинал
Субтитры: Английские-Режиссер: Джейсон Уайнер / Jason Winer
В ролях: Робин Уильямс, Сара Мишель Геллар, Джеймс Волк, Хамиш Линклэйтер, Аманда Сеттон, Джен Лиллей, Джесси Картер, Тодд Роберт Андерсон, Чести Баллестерос-Описание: Комедия рассказывает об отношениях отца и дочери, работающих в мире рекламы.- --Качество: WEB-DL 720p
Формат: MKV
Видео: 1280x718 (16:9), 23.976 fps,AVC, 3 952 Kbps
Аудио 1: AC3, 48 kHz, 2 channels, 192 kbps - MVO [Saint Sound]
Аудио 2: AC3, 48 kHz, 6 channels, 384 kbps - ENG [Оригинал]

МедиаИнфо

Код: copyText_writeLink('this.parentNode.parentNode.nextSibling.nextSibling'); General
Unique ID : 219097399770800254919969870665742433471 (0xA4D49FD1D61223E187D574D8D8623CBF)
Complete name : D:\DownLoads\Сумасшедшие\TCOS01 720p\TheCrazyOnesS01E01.mkv
Format : Matroska
Format version : Version 4 / Version 2
File size : 662 MiB
Duration : 20mn 1s
Overall bit rate : 4 620 Kbps
Encoded date : UTC 2013-10-10 13:48:40
Writing application : mkvmerge v6.3.0 ('You can't stop me!') built on Jun 28 2013 20:09:41
Writing library : libebml v1.3.0 + libmatroska v1.4.0
Video
ID : 1
Format : AVC
Format/Info : Advanced Video Codec
Format profile : [url=mailto:High@L3.1]High@L3.1[/url]
Format settings, CABAC : No
Format settings, ReFrames : 2 frames
Codec ID : V_MPEG4/ISO/AVC
Duration : 20mn 1s
Bit rate : 3 952 Kbps
Width : 1 280 pixels
Height : 718 pixels
Display aspect ratio : 16:9
Frame rate mode : Constant
Frame rate : 23.976 fps
Color space : YUV
Chroma subsampling : 4:2:0
Bit depth : 8 bits
Scan type : Progressive
Bits/(Pixel*Frame) : 0.179
Stream size : 566 MiB (86%)
Language : English
Default : Yes
Forced : No
Color primaries : BT.709
Transfer characteristics : BT.709
Matrix coefficients : BT.709
Audio #1
ID : 2
Format : AC-3
Format/Info : Audio Coding 3
Mode extension : CM (complete main)
Format settings, Endianness : Big
Codec ID : A_AC3
Duration : 20mn 1s
Bit rate mode : Constant
Bit rate : 192 Kbps
Channel(s) : 2 channels
Channel positions : Front: L R
Sampling rate : 48.0 KHz
Bit depth : 16 bits
Compression mode : Lossy
Stream size : 27.5 MiB (4%)
Language : Russian
Default : Yes
Forced : No
Audio #2
ID : 3
Format : AC-3
Format/Info : Audio Coding 3
Mode extension : CM (complete main)
Format settings, Endianness : Big
Codec ID : A_AC3
Duration : 20mn 1s
Bit rate mode : Constant
Bit rate : 384 Kbps
Channel(s) : 6 channels
Channel positions : Front: L C R, Side: L R, LFE
Sampling rate : 48.0 KHz
Bit depth : 16 bits
Compression mode : Lossy
Stream size : 55.0 MiB (8%)
Language : English
Default : No
Forced : No
Text
ID : 4
Format : UTF-8
Codec ID : S_TEXT/UTF8
Codec ID/Info : UTF-8 Plain Text
Title : CC
Language : English
Default : No
Forced : No

Скриншоты


_________________
Показать сообщения:    

Текущее время: Сегодня 01:07

Часовой пояс: GMT



Вы не можете начинать темы
Вы не можете отвечать на сообщения
Вы не можете редактировать свои сообщения
Вы не можете удалять свои сообщения
Вы не можете голосовать в опросах
Вы не можете прикреплять файлы к сообщениям
Вы не можете скачивать файлы
Наши партнеры: интернет магазин Ивановского трикотажа textilla.ru