Важное объявление!
У Нас Все раздачи мультитрекерные, при нуле пиров в релизах, можете смело вставать на закачку!
 
Автор Сообщение

HUNTER

Стаж:
4 года 6 месяцев
Сообщений:
61006

Репутация: 101

[+] [-]
Вне форума [Профиль] [ЛС]

Суд в Берлине / Judgment in Berlin«Only two things stand between him and freedom. The Iron Curtain... and the United States»
Страна: Германия (ФРГ), США
Жанр: драма
Год выпуска: 1988
Продолжительность: 01:31:02
Перевод: Профессиональный (многоголосый закадровый)
Cубтитры: нет
Оригинальная аудиодорожка: английский
Режиссер: Лео Пенн / Leo Penn
В ролях: Мартин Шин, Шон Пенн, Харрис Юлин, Сэм Уонамейкер, Макс Гэйл, Юрген Хайнрих, Хайнц Хёниг, Карл Ламбли, Макс Фолькерт Мартенс, Кристин Роуз
Описание: 30 августа, 1978 года, Хельмут — восточный немец захватывает самолет и, угрожая пистолетом, принуждает пилотов приземлиться в Западном Берлине, который раньше никогда не выдавал перебежчиков на родину.
На этот раз все изменилось, Хельмуту приходится бороться за свою свободу. Из Америки приезжает судья Герберт Стерн, чтобы провести показательный процесс. В ходе суда выясняется, что не будет даже присяжнных.
Подсудимого собираются посадить на 15 лет. Судьба Хельмута зависит от показаний единственного свидетеля.
Доп. информация: HDTVRIp [url=viewtopic.php?t=5271423]http://rutracker.org/forum/viewtopic.php?t=5271423[/url]
Сэмпл: http://multi-up.com/1114275
[img]https://rating.kinopoisk.ru/6961.gif[/img]
Тип релиза: HDTV 1080i
Контейнер: TS
Видео: AVC/H.264, PAL, 1920х1080 (16:9), 25 fps, 9957 Кбит/сек
Аудио 1: русский, MP2, 48000 Hz, 192 Кбит/сек, 2 ch
Аудио 2: английский, АС3, 48000 Hz, 192 Кбит/сек, 2 ch

MediaInfo

Общее
Идентификатор : 1 (0x1)
Полное имя : C:\Users\User\Desktop\Judgment in Berlin.ts
Формат : MPEG-TS
Размер файла : 6,92 Гбайт
Продолжительность : 1 ч. 31 м.
Режим общего битрейта : Переменный
Общий поток : 10,9 Мбит/сек
Максимальный общий битрейт : 35,5 Мбит/сек
Видео
Идентификатор : 4113 (0x1011)
Идентификатор меню : 1 (0x1)
Формат : AVC
Формат/Информация : Advanced Video Codec
Профиль формата : Main@L4.0
Параметр CABAC формата : Да
Параметр ReFrames формата : 4 кадра
Параметр GOP формата : M=1, N=32
Идентификатор кодека : 27
Продолжительность : 1 ч. 31 м.
Вид битрейта : Переменный
Битрейт : 9957 Кбит/сек
Максимальный битрейт : 40,0 Мбит/сек
Ширина : 1920 пикселей
Высота : 1080 пикселей
Соотношение сторон : 16:9
Частота кадров : 25,000 кадров/сек
Цветовое пространство : YUV
Субдискретизация насыщенности : 4:2:0
Битовая глубина : 8 бит
Тип развёртки : Чересстрочная
Порядок развёртки : Верхнее поле первое
Бит/(Пиксели*Кадры) : 0.192
Размер потока : 6,33 Гбайт (92%)
colour_range : Limited
Аудио #1
Идентификатор : 4352 (0x1100)
Идентификатор меню : 1 (0x1)
Формат : MPEG Audio
Версия формата : Version 1
Профиль формата : Layer 2
Идентификатор кодека : 4
Продолжительность : 1 ч. 31 м.
Вид битрейта : Постоянный
Битрейт : 192 Кбит/сек
Каналы : 2 канала
Частота : 48,0 КГц
Метод сжатия : С потерями
Размер потока : 125 Мбайт (2%)
Язык : Russian
Аудио #2
Идентификатор : 4353 (0x1101)
Идентификатор меню : 1 (0x1)
Формат : AC-3
Формат/Информация : Audio Coding 3
Расширение режима : CM (complete main)
Параметр Endianness формата : Big
Идентификатор кодека : 129
Продолжительность : 1 ч. 31 м.
Вид битрейта : Постоянный
Битрейт : 192 Кбит/сек
Каналы : 2 канала
Расположение каналов : Front: L R
Частота : 48,0 КГц
Битовая глубина : 16 бит
Метод сжатия : С потерями
Размер потока : 125 Мбайт (2%)

Скриншот с названием фильма

Скриншоты


_________________
Показать сообщения:    

Текущее время: Сегодня 01:44

Часовой пояс: GMT



Вы не можете начинать темы
Вы не можете отвечать на сообщения
Вы не можете редактировать свои сообщения
Вы не можете удалять свои сообщения
Вы не можете голосовать в опросах
Вы не можете прикреплять файлы к сообщениям
Вы не можете скачивать файлы
Наши партнеры: интернет магазин Ивановского трикотажа textilla.ru