Важное объявление!
У Нас Все раздачи мультитрекерные, при нуле пиров в релизах, можете смело вставать на закачку!
 
Автор Сообщение

HUNTER

Стаж:
4 года 8 месяцев
Сообщений:
62116

Репутация: 101

[+] [-]
Вне форума [Профиль] [ЛС]

Судьба-охотник / Fate Is the Hunter

Слоган: «You have a date with fate!»
Страна: США
Студия: Arcola Pictures
Жанр: триллер, драма, детектив
Год выпуска: 1964
Продолжительность: 01:45:45
Перевод: Профессиональный (многоголосый закадровый) - 1-й канал
Cубтитры: нет
Оригинальная аудиодорожка: английский
Режиссер: Ральф Нельсон / Ralph Nelson
В ролях: Гленн Форд, Нэнси Кван, Род Тейлор, Сюзанн Плешетт, Джейн Расселл, Уолли Кокс, Нехемия Персофф, Марк Стивенс, Макс Шоуолтер, Констанс Тауэрс ...
Описание: Через пять минут после взлета в аэропорту Лос-Анджелеса разбивается авиалайнер с пятьюдесятью тремя пассажирами на борту. Выживает одна стюардесса. Сразу же появляется множество версий причин авиакатастрофы: от техногенных до возможной диверсии. Позиция самого авиаперевозчика — пилот Джек Сэвидж был пьян. Однако такая «официальная» версия совсем не устраивает Сэма МакБейна. В военное время МакБейн был вторым пилотом у Сэвиджа, а теперь сменил штурвал самолета на руководящую работу в авиакомпании. Несмотря на то, что в последнее время у них с Сэвиджом были непростые отношения, МакБейн решает доказать всем, что Джек не виновен,…. в ущерб собственному повышению по службе.
Доп. информация: Исходники Fate.Is.the.Hunter.1964.720p.BluRay.AAC1.0.x264-DON, Fate.Is.the.Hunter.1964.720p.BluRay.x264-SADPANDA_ найдены в сети.--Спасибо за рус. дорожку [url=viewtopic.php?t=4437663]bm11[/url]-- --Fate Is the Hunter (1964)_720p BDRip_Sample_.mkv-
-

Награды


-
-Тип релиза: BDRip 720p
Контейнер: MKV
Видео: 264, 1280x548, 2.35:1, 23.976 fps, 8 695 Kbps, Progressive, 0.517 Bits/(Pixel*Frame)
Аудио 1: 48 kHz, AC3 Dolby Digital, 2/0 (L,R) ch, ~ 192 kbps, Русский
Аудио 2: 48 kHz, DTS, 1/0 (C) ch, 24 bits, ~768 kbps, Английский
Аудио 3: 48 kHz, AC3 Dolby Digital, 2/0 (L,R) ch, ~ 192 kbps, Английский - Isolated Score Track with Commentary by Actress Nancy Kwan and Film Historian Nick Redman

MediaInfo

General
Unique ID : 180263504605574889250759247690638019542 (0x879D7CF6BE52F65A80CB93C7584BCBD6)
Complete name : I:\111\z_D_Disk\Fate Is the Hunter (1964)_720p BDRip_.mkv
Format : Matroska
Format version : Version 4 / Version 2
File size : 7.42 GiB
Duration : 1h 45mn
Overall bit rate : 10.0 Mbps
Encoded date : UTC 2016-03-21 08:47:01
Writing application : mkvmerge v8.6.1 ('Flying') 64bit
Writing library : libebml v1.3.3 + libmatroska v1.4.4
Video
ID : 1
Format : AVC
Format/Info : Advanced Video Codec
Format profile : High@L4.1
Format settings, CABAC : Yes
Format settings, ReFrames : 11 frames
Codec ID : V_MPEG4/ISO/AVC
Duration : 1h 45mn
Bit rate : 8 695 Kbps
Width : 1 280 pixels
Height : 548 pixels
Display aspect ratio : 2.35:1
Frame rate mode : Constant
Frame rate : 23.976 (24000/1001) fps
Color space : YUV
Chroma subsampling : 4:2:0
Bit depth : 8 bits
Scan type : Progressive
Bits/(Pixel*Frame) : 0.517
Stream size : 6.42 GiB (87%)
Title : Fate Is the Hunter (1964)_720p BDRip_[rjhlb777]
Writing library : x264 core 142 r2409+42 04be48a tMod [8-bit@all X86_64]
Encoding settings : cabac=1 / ref=11 / deblock=1:-3:-3 / analyse=0x3:0x133 / me=tesa / subme=10 / psy=1 / fade_compensate=0.00 / psy_rd=1.05:0.00 / mixed_ref=1 / me_range=32 / chroma_me=1 / trellis=2 / 8x8dct=1 / cqm=0 / deadzone=21,11 / fast_pskip=0 / chroma_qp_offset=-2 / threads=12 / lookahead_threads=2 / sliced_threads=0 / nr=0 / decimate=1 / interlaced=0 / bluray_compat=0 / constrained_intra=0 / fgo=0 / bframes=8 / b_pyramid=2 / b_adapt=2 / b_bias=0 / direct=3 / weightb=1 / open_gop=0 / weightp=2 / keyint=241 / keyint_min=23 / scenecut=40 / intra_refresh=0 / rc_lookahead=60 / rc=crf / mbtree=0 / crf=17.5000 / qcomp=0.75 / qpmin=0:0:0 / qpmax=69:69:69 / qpstep=4 / vbv_maxrate=50000 / vbv_bufsize=62500 / crf_max=0.0 / nal_hrd=none / filler=0 / ip_ratio=1.30 / pb_ratio=1.20 / aq=1:0.70 / aq-sensitivity=10.00 / aq-factor=1.00:1.00:1.00 / aq2=0 / aq3=0
Language : English
Default : Yes
Forced : No
Audio #1
ID : 2
Format : AC-3
Format/Info : Audio Coding 3
Mode extension : CM (complete main)
Format settings, Endianness : Big
Codec ID : A_AC3
Duration : 1h 45mn
Bit rate mode : Constant
Bit rate : 192 Kbps
Channel(s) : 2 channels
Channel positions : Front: L R
Sampling rate : 48.0 KHz
Frame rate : 31.250 fps (1536 spf)
Compression mode : Lossy
Stream size : 145 MiB (2%)
Title : MVO ("1-й канал")
Language : Russian
Default : Yes
Forced : No
Audio #2
ID : 3
Format : DTS
Format/Info : Digital Theater Systems
Mode : 16
Format settings, Endianness : Big
Codec ID : A_DTS
Duration : 1h 45mn
Bit rate mode : Constant
Bit rate : 768 Kbps
Channel(s) : 1 channel
Channel positions : Front: C
Sampling rate : 48.0 KHz
Frame rate : 93.750 fps (512 spf)
Bit depth : 24 bits
Compression mode : Lossy
Stream size : 581 MiB (8%)
Title : Original
Language : English
Default : No
Forced : No
Audio #3
ID : 4
Format : AC-3
Format/Info : Audio Coding 3
Mode extension : CM (complete main)
Format settings, Endianness : Big
Codec ID : A_AC3
Duration : 1h 45mn
Bit rate mode : Constant
Bit rate : 192 Kbps
Channel(s) : 2 channels
Channel positions : Front: L R
Sampling rate : 48.0 KHz
Frame rate : 31.250 fps (1536 spf)
Compression mode : Lossy
Stream size : 145 MiB (2%)
Title : Isolated Score Track with Commentary by Actress Nancy Kwan and Film Historian Nick Redman
Language : English
Default : No
Forced : No
Menu
00:00:00.000 : en:Chapter 01
00:11:34.611 : en:Chapter 02
00:19:23.788 : en:Chapter 03
00:27:02.496 : en:Chapter 04
00:36:48.832 : en:Chapter 05
00:48:44.964 : en:Chapter 06
00:58:07.401 : en:Chapter 07
01:06:09.716 : en:Chapter 08
01:12:46.904 : en:Chapter 09
01:19:46.699 : en:Chapter 11
01:32:10.567 : en:Chapter 12
01:45:00.961 : en:Chapter 13
=====================================================
=====================================================
RUNTIME…….: 1h 45mnSIZE……….: 6.72 GiBVIDEO CODEC…: x264, CRF 17.5, L4.1FRAMERATE…..: 23.976 fpsBITRATE…….: 8 717 KbpsRESOLUTION….: 1280?548AUDIO ……..: English 1.0ch AAC @ 141 Kbps (q=0.75)AUDIO ……..: English 2.0ch AAC (Isolated Score with Commentary by Nancy Kwan and Nick Redman)SUBTITLES…..: –CHAPTERS/NAMED: Yes / NoSOURCE……..: Fate Is the Hunter 1964 1080p Blu-ray AVC DTS-HD MA 2.0(thanks!)
-
-SADPANDA
Brings You
Fate.Is.the.Hunter.1964.720p.BluRay.x264-SADPANDA
* SIZE ...... 4.4 GiB
* DURATION .. 1h 45mn
* VIDEO ..... x264 1280x544 5,137Kbps @ 23.976fps
* AUDIO ..... English DTS 768Kbps 1ch
* SUBS ...... N/A
* LINK ...... http://www.imdb.com/title/tt0058091
* RATING .... 7.2/10 from 911 users
* GENRE ..... Drama | Mystery | Thriller
* PLOT ...... A man refuses to believe that pilot error caused a
fatal crash, and persists in looking for another
reason.
GREETINGS VOMiT

-
-
-

Доп.


_________________
Показать сообщения:    

Текущее время: Сегодня 14:56

Часовой пояс: GMT



Вы не можете начинать темы
Вы не можете отвечать на сообщения
Вы не можете редактировать свои сообщения
Вы не можете удалять свои сообщения
Вы не можете голосовать в опросах
Вы не можете прикреплять файлы к сообщениям
Вы не можете скачивать файлы
Наши партнеры: интернет магазин Ивановского трикотажа textilla.ru