Важное объявление!
У Нас Все раздачи мультитрекерные, при нуле пиров в релизах, можете смело вставать на закачку!
 
Автор Сообщение

димитри37

Стаж:
4 года
Сообщений:
1236

Репутация: 127

[+] [-]
Вне форума [Профиль] [ЛС]

Судная ночь / The Purge
«Одну ночь в году дозволено все. Главное - дожить до рассвета»
Страна: США, Франция
Жанр: триллер, ужасы
Год выпуска: 2013
Продолжительность: 01:25:11
Перевод: Профессиональный (полное дублирование) [Лицензия]
Субтитры: нет
Режиссер: Джеймс ДеМонако / James DeMonaco
В ролях: Итан Хоук, Лина Хиди, Макс Буркхолдер, Аделаида Кэйн, Эдвин Ходж, Риз Уэйкфилд, Тони Оллер, Ария Барейкис, Том Йи, Крис Малки, Тиша Френч, Дэна Банч
Описание: Мир будущего - мир без преступности... безработицы... войн. И все это благодаря одной ночи в году, когда можно отправить на тот свет любого - злобного босса, шумных соседей, надоевших родственников. В Судную ночь дозволено все - главное дожить до рассвета.


MPAA: R - Лицам до 17 лет обязательно присутствие взрослого
Сценарий: Джеймс ДеМонако / James DeMonaco
Продюсер: Майкл Бэй / Michael Bay, Джейсон Блум / Jason Blum, Эндрю Форм / Andrew Form, Брэдли Фуллер / Bradley Fuller, Себастьен Лемерсье / Sebastien Lemercier
Оператор: Жак Жуффре / Jacques Jouffret
Композитор: Нэйтан Уайтхед / Nathan Whitehead
Бюджет: $3 000 000
Сборы в США: $64 064 410
Сборы в России: $1 145 799
Сборы в мире: $76 364 410
Мировая премьера: 2 мая 2013
Релиз на DVD: 10 октября 2013, «Двадцатый Век Фокс СНГ»
Релиз на Blu-ray: 10 октября 2013, «Двадцатый Век Фокс СНГ»
Качество: WEB-DLRip
Контейнер: AVI
Видео: XviD, 720x304 (2.35:1), 1910 kbps, 23,976 fps, 0,364 bpp
Аудио: AC3 / 5.1 / 48 kHz / 384 kbps / 16 bit

Media Info

General
Complete name : G:\Sudnaja.Noch.2013.D.WEBDLRip.1400MB.avi
Format : AVI
Format/Info : Audio Video Interleave
File size : 1.37 GiB
Duration : 1h 25mn
Overall bit rate : 2 304 Kbps
Writing application : VirtualDubMod 1.5.10.2 (build 2540/release)
Writing library : VirtualDubMod build 2540/release
Video
ID : 0
Format : MPEG-4 Visual
Format profile : Advanced Simple@L5
Format settings, BVOP : 2
Format settings, QPel : No
Format settings, GMC : No warppoints
Format settings, Matrix : Default (MPEG)
Codec ID : XVID
Codec ID/Hint : XviD
Duration : 1h 25mn
Bit rate : 1 910 Kbps
Width : 720 pixels
Height : 304 pixels
Display aspect ratio : 2.35:1
Frame rate : 23.976 fps
Color space : YUV
Chroma subsampling : 4:2:0
Bit depth : 8 bits
Scan type : Progressive
Compression mode : Lossy
Bits/(Pixel*Frame) : 0.364
Stream size : 1.14 GiB (83%)
Writing library : XviD 1.2.1 (UTC 2008-12-04)
Audio
ID : 1
Format : AC-3
Format/Info : Audio Coding 3
Mode extension : CM (complete main)
Codec ID : 2000
Duration : 1h 25mn
Bit rate mode : Constant
Bit rate : 384 Kbps
Channel(s) : 6 channels
Channel positions : Front: L C R, Side: L R, LFE
Sampling rate : 48.0 KHz
Bit depth : 16 bits
Compression mode : Lossy
Stream size : 234 MiB (17%)
Alignment : Split accross interleaves
Interleave, duration : 42 ms (1.00 video frame)
Interleave, preload duration : 500 ms

Скриншот с названием фильма

Скриншоты

-Источник:
Показать сообщения:    

Текущее время: Сегодня 11:30

Часовой пояс: GMT



Вы не можете начинать темы
Вы не можете отвечать на сообщения
Вы не можете редактировать свои сообщения
Вы не можете удалять свои сообщения
Вы не можете голосовать в опросах
Вы не можете прикреплять файлы к сообщениям
Вы не можете скачивать файлы
Наши партнеры: интернет магазин Ивановского трикотажа textilla.ru