Ивановский Торрент трекер
Яндекс.Погода
 

[Цитировать]
HUNTER

Стукнутый / Зацикленный / Влипли! / Zapped!
Страна: США
Студия: Apple / Rose, City Films, Embassy Pictures
Жанр: комедия
Год выпуска: 1982
Продолжительность: 01:38:12
Перевод 1: Авторский (одноголосый закадровый) А. Михалев
Перевод 2: Авторский (одноголосый закадровый) В. Дохалов
Перевод 3: Студийный (одноголосый закадровый) ОРТ
Cубтитры: английские
Оригинальная аудиодорожка: английский
Режиссер: Роберт Дж. Розенталь / Robert J. Rosenthal
В ролях: Скотт Байо, Вилли Эймс, Роберт Мэндан, Фелис Шатер, Скэтмэн Крозерс, Роджер Боуэн, Мьюз Смолл, Грег Брэдфорд, Хилари Бин, Сью Эни Лэнгдон, Хезер Томас, Харди Кейт, Курт Айерс, Мерритт Бутрик, Дженнифер Чаплин, Ирвин Кийес, Генри Форд Робинсон, Дик Балдуцци, Беннетт Лисс, Рон Дьютч, Эдди Дизен, Брайан О`Берн, Эд Бэйки, Жан Лейтон, ЛаВанда Пейдж…
Описание: Легкая комедия о старшекласснике, увлекающемся научными опытами. Он случайно наделил себя телекинетическими способностями, когда его стукнуло по голове после взрыва в лаборатории. Новые возможности круто меняют его жизнь…
II Сэмпл II IMDB II
Тип релиза: BDRemux 1080p
Контейнер: MKV
Видео: AVC / 1920x1080 / 16:9 / 23.976fps / 28900Kbps / High@L4.1
Аудио 1: AC3 / 48.0 KHz / 2ch. / 192kbps / Rus / AVO / А. Михалев
Аудио 2: AC3 / 48.0 KHz / 2ch. / 192kbps / Rus / AVO / В. Дохалов
Аудио 3: AC3 / 48.0 KHz / 2ch. / 192kbps / Rus / VO / ОРТ
Аудио 4: DTS-HD MA / 48.0 KHz / 2ch / 1856kbps / 24bit (DTS Core 48.0 KHz / 2ch / 1509kbps / 24bit / Eng
Формат субтитров: softsub (SRT)

MediaInfo

Уникальный идентификатор : 222503427975925594111428772965777683857 (0xA76499F9B9D29B8D82314096D3143591)
Полное имя : D:\_Torrent\HD\Zapped.1982.BDRemux.1080p_by_vedigo.mkv
Формат : Matroska
Версия формата : Version 4 / Version 2
Размер файла : 21,5 Гбайт
Продолжительность : 1 ч. 38 м.
Режим общего битрейта : Переменный
Общий поток : 31,3 Мбит/сек
Название фильма : Zapped.1982.BDRemux.1080p_by_vedigo
Дата кодирования : UTC 2016-09-06 09:50:45
Программа кодирования : mkvmerge v9.4.0 ('Knurl') 64bit
Библиотека кодирования : libebml v1.3.4 + libmatroska v1.4.5
Видео
Идентификатор : 1
Формат : AVC
Формат/Информация : Advanced Video Codec
Профиль формата : High@L4.1
Параметр CABAC формата : Да
Параметр ReFrames формата : 4 кадра
Идентификатор кодека : V_MPEG4/ISO/AVC
Продолжительность : 1 ч. 38 м.
Вид битрейта : Переменный
Битрейт : 28,9 Мбит/сек
Максимальный битрейт : 38,0 Мбит/сек
Ширина : 1920 пикселей
Высота : 1080 пикселей
Соотношение сторон : 16:9
Режим частоты кадров : Постоянный
Частота кадров : 23,976 (24000/1001) кадра/сек
Цветовое пространство : YUV
Субдискретизация насыщенности : 4:2:0
Битовая глубина : 8 бит
Тип развёртки : Прогрессивная
Бит/(Пиксели*Кадры) : 0.581
Размер потока : 19,8 Гбайт (92%)
Заголовок : Zapped.1982.BDRemux.1080p_by_vedigo
Default : Да
Forced : Нет
Аудио #1
Идентификатор : 2
Формат : AC-3
Формат/Информация : Audio Coding 3
Расширение режима : CM (complete main)
Параметр Endianness формата : Big
Идентификатор кодека : A_AC3
Продолжительность : 1 ч. 38 м.
Вид битрейта : Постоянный
Битрейт : 192 Кбит/сек
Каналы : 2 канала
Расположение каналов : Front: L R
Частота : 48,0 КГц
Частота кадров : 31,250 кадров/сек (1536 spf)
Метод сжатия : С потерями
Размер потока : 135 Мбайт (1%)
Заголовок : AVO @ А.Михалев
Язык : Russian
Default : Да
Forced : Нет
Аудио #2
Идентификатор : 3
Формат : AC-3
Формат/Информация : Audio Coding 3
Расширение режима : CM (complete main)
Параметр Endianness формата : Big
Идентификатор кодека : A_AC3
Продолжительность : 1 ч. 38 м.
Вид битрейта : Постоянный
Битрейт : 192 Кбит/сек
Каналы : 2 канала
Расположение каналов : Front: L R
Частота : 48,0 КГц
Частота кадров : 31,250 кадров/сек (1536 spf)
Метод сжатия : С потерями
Размер потока : 135 Мбайт (1%)
Заголовок : AVO @ В.Дохалов
Язык : Russian
Default : Нет
Forced : Нет
Аудио #3
Идентификатор : 4
Формат : AC-3
Формат/Информация : Audio Coding 3
Расширение режима : CM (complete main)
Параметр Endianness формата : Big
Идентификатор кодека : A_AC3
Продолжительность : 1 ч. 38 м.
Вид битрейта : Постоянный
Битрейт : 192 Кбит/сек
Каналы : 2 канала
Расположение каналов : Front: L R
Частота : 48,0 КГц
Частота кадров : 31,250 кадров/сек (1536 spf)
Метод сжатия : С потерями
Размер потока : 135 Мбайт (1%)
Заголовок : VO @ ОРТ
Язык : Russian
Default : Нет
Forced : Нет
Аудио #4
Идентификатор : 5
Формат : DTS
Формат/Информация : Digital Theater Systems
Профиль формата : MA / Core
Режим : 16
Параметр Endianness формата : Big
Идентификатор кодека : A_DTS
Продолжительность : 1 ч. 38 м.
Вид битрейта : Переменный / Постоянный
Битрейт : 1856 Кбит/сек / 1509 Кбит/сек
Каналы : 2 канала
Расположение каналов : Front: L R
Частота : 48,0 КГц
Частота кадров : 93,750 кадра/сек (512 spf)
Битовая глубина : 24 бит
Метод сжатия : Без потерь / Lossy
Размер потока : 1,27 Гбайт (6%)
Заголовок : Original
Язык : English
Default : Нет
Forced : Нет
Текст
Идентификатор : 6
Формат : UTF-8
Идентификатор кодека : S_TEXT/UTF8
Идентификатор кодека/Информация : UTF-8 Plain Text
Продолжительность : 1 ч. 37 м.
Битрейт : 61 бит/сек
Count of elements : 1316
Размер потока : 44,4 Кбайт (0%)
Заголовок : Subtitle eng
Язык : English
Default : Нет
Forced : Нет

Скриншоты


Показать сообщения:    

Текущее время: 17-Окт 06:56

Часовой пояс: UTC - 1


Вы не можете начинать темы
Вы не можете отвечать на сообщения
Вы не можете редактировать свои сообщения
Вы не можете удалять свои сообщения
Вы не можете голосовать в опросах
Вы не можете прикреплять файлы к сообщениям
Вы не можете скачивать файлы

!ВНИМАНИЕ!
Сайт не предоставляет электронные версии произведений, а занимается лишь коллекционированием и каталогизацией ссылок, присылаемых и публикуемых на форуме нашими читателями. Если вы являетесь правообладателем какого-либо представленного материала и не желаете, чтобы ссылка на него находилась в нашем каталоге, свяжитесь с нами, и мы незамедлительно удалим ее. Файлы для обмена на трекере предоставлены пользователями сайта, и администрация не несет ответственности за их содержание. Просьба не заливать файлы, защищенные авторскими правами, а также файлы нелегального содержания!