Стрелки Юбочного форта / The Guns of Fort Petticoat (Джордж Маршалл / George Marshall) [1957, США, вестерн, военный, BDRemux 1080p] [GER Transfer] VO (funny77) + Sub Eng + Original Eng :: Ивановский Торрент трекер
Важное объявление!
У Нас Все раздачи мультитрекерные, при нуле пиров в релизах, можете смело вставать на закачку!
 
Автор Сообщение

HUNTER

Стаж:
4 года 11 месяцев
Сообщений:
66047

Репутация: 101

[+] [-]
Вне форума [Профиль] [ЛС]

Стрелки Юбочного форта / The Guns of Fort Petticoat«GOOD WOMEN...BAD WOMEN...BRAWLING WOMEN...BRAVE WOMEN! They were all soldiers in skirts!»
Страна: США
Жанр: вестерн, военный
Год выпуска: 1957
Продолжительность: 01:21:21
Перевод: Одноголосый закадровый funny77
Cубтитры: английские
Оригинальная аудиодорожка: английский
-
Режиссер: Джордж Маршалл / George Marshall
В ролях: Оди Мерфи, Кэтрин Грант, Хоуп Эмерсон, Джефф Доннел, Жанетт Нолан, Шон МакКлори, Эрнестин Вэйд, Пегги Мали, Изобел Элсом, Патриция Тирнан
-
Описание: Во время Гражданской войны техасец Фрэнк Хьюит по зову совести вступает в армию Севера. Под надуманным предлогом командир его подразделения приказывает уничтожить дружественную индейскую деревню, и Фрэнк с ужасом понимает, что теперь озлобленные индейцы неминуемо нападут на Техас. На его родные края, где почти все мужчины ушли на войну, беззащитные женщины и дети остались одни. И Фрэнк не колеблется ни минуты: он любой ценой должен защитить своих земляков, пусть все они и считают его предателем...
[img]https://rating.kinopoisk.ru/203062.gif[/img]
Тип релиза: BDRemux 1080p
Контейнер: MKV
Видео: MPEG-4 AVC / NTSC 16:9 / 1920x1080 (1,78:1) / 29902 kbps / 23,976 fps / 0.601 bit/pixel / High@L4.1
Аудио 1: Russian / Dolby Digital Audio / 2.0 Ch / 48 kHz / 192 kbps / 16 bit / VO
Аудио 2: English / LPCM Audio / 2.0 Ch / 48 kHz / 1536 kbps / 16-bit / Original
Формат субтитров: softsub (SRT)
Навигация по главам: есть

MediaInfo

Код:
Общее
Уникальный идентификатор                 : 197606909746744503605495232563610933446 (0x94A9B4DB363EF92C88E49798C6F058C6)
Полное имя                               : F:\The Guns of Fort Petticoat.1957.BDRemux.mkv
Формат                                   : Matroska
Версия формата                           : Version 4 / Version 2
Размер файла                             : 18,0 Гбайт
Продолжительность                        : 1 ч. 21 м.
Режим общего битрейта                    : Переменный
Общий поток                              : 31,6 Мбит/сек
Название фильма                          : Release for RuTracker © flaSI-I
Дата кодирования                         : UTC 2016-07-23 16:03:14
Программа кодирования                    : mkvmerge v9.3.1 ('Mask Machine') 64bit
Библиотека кодирования                   : libebml v1.3.4 + libmatroska v1.4.5
Видео
Идентификатор                            : 1
Формат                                   : AVC
Формат/Информация                        : Advanced Video Codec
Профиль формата                          : High@L4.1
Параметр CABAC формата                   : Да
Параметр ReFrames формата                : 4 кадра
Идентификатор кодека                     : V_MPEG4/ISO/AVC
Продолжительность                        : 1 ч. 21 м.
Вид битрейта                             : Переменный
Битрейт                                  : 29,9 Мбит/сек
Максимальный битрейт                     : 35,0 Мбит/сек
Ширина                                   : 1920 пикселей
Высота                                   : 1080 пикселей
Соотношение сторон                       : 16:9
Режим частоты кадров                     : Постоянный
Частота кадров                           : 23,976 (24000/1001) кадра/сек
Стандарт вещания                         : NTSC
Цветовое пространство                    : YUV
Субдискретизация насыщенности            : 4:2:0
Битовая глубина                          : 8 бит
Тип развёртки                            : Прогрессивная
Бит/(Пиксели*Кадры)                      : 0.601
Размер потока                            : 17,0 Гбайт (95%)
Язык                                     : English
Default                                  : Да
Forced                                   : Нет
Цветовой диапазон                        : Limited
Основные цвета                           : BT.709
Характеристики трансфера                 : BT.709
Коэффициенты матрицы                     : BT.709
Аудио #1
Идентификатор                            : 2
Формат                                   : AC-3
Формат/Информация                        : Audio Coding 3
Расширение режима                        : CM (complete main)
Параметр Endianness формата              : Big
Идентификатор кодека                     : A_AC3
Продолжительность                        : 1 ч. 21 м.
Вид битрейта                             : Постоянный
Битрейт                                  : 192 Кбит/сек
Каналы                                   : 2 канала
Расположение каналов                     : Front: L R
Частота                                  : 48,0 КГц
Частота кадров                           : 31,250 кадров/сек (1536 spf)
Метод сжатия                             : С потерями
Размер потока                            : 112 Мбайт (1%)
Заголовок                                : VO / funny77
Язык                                     : Russian
Default                                  : Да
Forced                                   : Нет
Аудио #2
Идентификатор                            : 3
Формат                                   : PCM
Идентификатор кодека                     : A_PCM/INT/LIT
Продолжительность                        : 1 ч. 21 м.
Вид битрейта                             : Постоянный
Битрейт                                  : 1536 Кбит/сек
Каналы                                   : 2 канала
Частота                                  : 48,0 КГц
Частота кадров                           : 32,000 кадра/сек (1500 spf)
Битовая глубина                          : 16 бит
Размер потока                            : 894 Мбайт (5%)
Заголовок                                : Original
Язык                                     : English
Default                                  : Нет
Forced                                   : Нет
Текст
Идентификатор                            : 4
Формат                                   : UTF-8
Идентификатор кодека                     : S_TEXT/UTF8
Идентификатор кодека/Информация          : UTF-8 Plain Text
Продолжительность                        : 1 ч. 19 м.
Битрейт                                  : 46 бит/сек
Count of elements                        : 864
Размер потока                            : 27,1 Кбайт (0%)
Заголовок                                : Original
Язык                                     : English
Default                                  : Нет
Forced                                   : Нет
Меню
00:00:00.000                             : en:00:00:00.000
00:01:13.156                             : en:00:01:13.156
00:07:51.179                             : en:00:07:51.179
00:11:19.929                             : en:00:11:19.929
00:22:32.101                             : en:00:22:32.101
00:28:59.488                             : en:00:28:59.488
00:40:04.986                             : en:00:40:04.986
00:47:57.583                             : en:00:47:57.583
00:54:06.994                             : en:00:54:06.994
01:01:37.444                             : en:01:01:37.444
01:08:34.527                             : en:01:08:34.527

Скриншоты


_________________
Показать сообщения:    

Текущее время: Сегодня 10:39

Часовой пояс: GMT



Вы не можете начинать темы
Вы не можете отвечать на сообщения
Вы не можете редактировать свои сообщения
Вы не можете удалять свои сообщения
Вы не можете голосовать в опросах
Вы не можете прикреплять файлы к сообщениям
Вы не можете скачивать файлы