Важное объявление!
У Нас Все раздачи мультитрекерные, при нуле пиров в релизах, можете смело вставать на закачку!
 
Автор Сообщение

HUNTER

Стаж:
4 года 7 месяцев
Сообщений:
61582

Репутация: 101

[+] [-]
Вне форума [Профиль] [ЛС]

Стрела / Arrow---
Год выпуска: 2012-2013
Страна: США
Жанр: фантастика, боевик, драма, детектив, приключения
Продолжительность: ~ 42 мин
Перевод: Профессиональный (многоголосый,закадровый) (BaibaKo)
Субтитры: Нет
Сезон: 1
Серии: 1-23 (из 23)
Режиссер: Дэвид Баррет, Дэвид Наттер
В ролях: Стивен Амелл, Эмили Бетт Рикардс, Кэти Кэссиди, Уилла Холлэнд, Джейми Шеридан, Жаклин МакИннес Вуд, Колин Сэлмон, Кэтлин Гати, Пол Блекторн, Сюзанна Томпсон ...
Описание: После кораблекрушения, плейбой миллиардер Оливер Куин пропадает и считается погибшим в течение пяти лет, после чего его обнаруживают живым на затерянном острове в Тихом океане. Когда он возвращается домой в Старлинг-Сити, его преданная мать Мойра, столь любимая сестра Теа, и лучший друг Томми приветствуют его дома, но они видят, что Оливер изменился после испытаний на острове. Хотя Оливер скрывает правду о человеке, которым он стал…
Качество: WEB-DL 1080p от Boerboel-frol | BaibaKo
Формат: MKV
Видео кодек: Другой MPEG4
Аудио кодек: AC3
Видео: MPEG4 Video (H264) 1920x1080, ~ 5050 Кбит/с, 23.98fps
Аудио: Русский, английский (AC3, 6 ch, 384 Кбит/с)

Список серий

01. Пилот / Pilot
02. Чти отца твоего / Honor Thy Father
03. Одинокий убийца / Lone Gunmen
04. Невиновный / An Innocent Man
05. Сломленный / Damaged
06. Наследие / Legacies
07. Муза пламени / Muse of Fire
08. Вендетта / Vendetta
09. Конец года / Year's End
10. Обгоревший / Burned
11. Доверяй, но проверяй / Trust But Verify
12. Вертиго / Vertigo
13. Предательство / Betrayal
14. Одиссея / The Odyssey
15. Доджер (Ловкач) / Dodger
16. С поличным / Dead to Rights
17. Охотница возвращается / The Huntress Returns
18. Спасение / Salvation
19. Незавершённое дело / Unfinished Business
20. Вторжение в дом
21. Предприятие / The Undertaking

YouTube movie

Доп. информация

|

Рецензия

Перспективный супергерой
Когда я впервые наткнулся на новый проект телеканала CW, я был несколько удивлен. Честно говоря, я всяко не ожидал, что не столь популярному в массовой культуре супергерою дадут отдельный сериал, на который, кстати, его создатели возлагают большие надежды. И, очевидно, они оправдываются, потому что «Стрела» побил все рейтинги канала за несколько недель, чем удивил и зрителей, и, полагаю, самих создателей.
Итак, давайте разберем этот сериал по кусочкам в рамках этой рецензии и выясним, настолько ли он хорош каким кажется на первый взгляд!
Актеры.
Перед началом просмотра я не возлагал практически никаких надежд на актерский состав сериала, поскольку из всего каста был знаком только с
Уиллой Холланд, которую знаю благодаря сериалу Gossip Girl. Не сказать, что я был поражен после просмотра, скорее наоборот. Основная масса актеров смотрится довольно деревянно и на редкость серо, поэтому и сцены с их участием абсолютно не цепляют и проходят незаметно (это касается и Стивена Амелла, исполнителя роли Оливера Куина). Тем не менее, мне было приятно наблюдать игру вышеупомянутой Уиллой Холланд (хотя её персонаж на данном этапе ещё недостаточно раскрыт, с ролью она справляется) и Дэвида Рэмси, которого я мельком застал в других проектах.
Спецэффекты и визуальный ряд в целом.
Несмотря на сравнительно невеликий бюджет, который выделили на создание первого сезона, эффекты в сериале красочные и сочные. Любая сцена взрыва, погони или битвы затягивает и заставляет примкнуть ближе к экрану. К этому разделу у меня нет никаких претензий.
Сюжет…
не сильно отличается от оригинальных комиксов Green Arrow, однако заметно «подслащен» и, в сравнении с названным ранее комиксом, упрощен в некоторых сегментов. Тем не менее, особо важных моментов изменено не было и общую структуру истории Зеленого Капюшона сценаристы передали умело.
Вывод.
Не могу не упомянуть, что уже к середине сериала было запущено сразу несколько весьма интересных сюжетных линий, которые не собираются топтаться на месте и быстро развиваются, все ближе и ближе приближаясь к своей развязке. В связи с этим смотреть сериал очень интересно. На протяжении просмотра происходящее по ту сторону экрана практически ни на минуту не дает тебе заскучать, и как только ты потянулся за пачкой чипсов, на экране тут же происходит какое-то динамичное действие, заставляющее тебя вновь присесть на кресло и внимательно продолжать просмотр.
Советую этот сериал всем любителям комиксов и хороших сериалов о супергероях.

MediaInfo

Код: copyText_writeLink('this.parentNode.parentNode.nextSibling.nextSibling'); General
Unique ID : 179419186206708858191489290920257120007 (0x86FAE0DA52172ACD9C6610AA619BE707)
Complete name : G:\Сериал\Arrow S01 baibako 1080p\Arrow.s01e01.HD1080p.WEB-DL.Rus.Eng.BaibaKo.tv.mkv
Format : Matroska
Format version : Version 2
File size : 1.77 GiB
Duration : 42mn 34s
Overall bit rate : 5 936 Kbps
Movie name : BaibaKo.tv presents - Стрела 1х01 Пилот
Encoded date : UTC 2012-10-13 14:31:43
Writing application : mkvmerge v5.4.0 ('Piper') built on Mar 10 2012 13:34:39
Writing library : libebml v1.2.3 + libmatroska v1.3.0
Video
ID : 1
Format : AVC
Format/Info : Advanced Video Codec
Format profile : [url=mailto:High@L4.0]High@L4.0[/url]
Format settings, CABAC : Yes
Format settings, ReFrames : 4 frames
Codec ID : V_MPEG4/ISO/AVC
Duration : 42mn 34s
Bit rate : 5 050 Kbps
Width : 1 920 pixels
Height : 1 080 pixels
Display aspect ratio : 16:9
Frame rate : 23.976 fps
Color space : YUV
Chroma subsampling : 4:2:0
Bit depth : 8 bits
Scan type : Progressive
Bits/(Pixel*Frame) : 0.102
Stream size : 1.50 GiB (85%)
Language : English
Color primaries : BT.709-5, BT.1361, IEC 61966-2-4, SMPTE RP177
Transfer characteristics : BT.709-5, BT.1361
Matrix coefficients : BT.709-5, BT.1361, IEC 61966-2-4 709, SMPTE RP177
Audio #1
ID : 2
Format : AC-3
Format/Info : Audio Coding 3
Mode extension : CM (complete main)
Codec ID : A_AC3
Duration : 42mn 34s
Bit rate mode : Constant
Bit rate : 384 Kbps
Channel(s) : 6 channels
Channel positions : Front: L C R, Side: L R, LFE
Sampling rate : 48.0 KHz
Bit depth : 16 bits
Compression mode : Lossy
Stream size : 117 MiB (6%)
Title : Rus BaibaKo.tv DD5.1
Language : Russian
Audio #2
ID : 3
Format : AC-3
Format/Info : Audio Coding 3
Mode extension : CM (complete main)
Codec ID : A_AC3
Duration : 42mn 34s
Bit rate mode : Constant
Bit rate : 384 Kbps
Channel(s) : 6 channels
Channel positions : Front: L C R, Side: L R, LFE
Sampling rate : 48.0 KHz
Bit depth : 16 bits
Compression mode : Lossy
Stream size : 117 MiB (6%)
Title : Eng DD5.1
Language : English

Скриншоты

Раздача ведётся путём добавления новых серий.

_________________
Показать сообщения:    

Текущее время: Сегодня 03:54

Часовой пояс: GMT



Вы не можете начинать темы
Вы не можете отвечать на сообщения
Вы не можете редактировать свои сообщения
Вы не можете удалять свои сообщения
Вы не можете голосовать в опросах
Вы не можете прикреплять файлы к сообщениям
Вы не можете скачивать файлы
Наши партнеры: интернет магазин Ивановского трикотажа textilla.ru