Важное объявление!
У Нас Все раздачи мультитрекерные, при нуле пиров в релизах, можете смело вставать на закачку!
 
Автор Сообщение

HUNTER

Стаж:
4 года 8 месяцев
Сообщений:
62091

Репутация: 101

[+] [-]
Вне форума [Профиль] [ЛС]

Страх / Я больше не верю в любовь / Non credo piu all'amore (La paura)International Version
Страна: Италия, Германия
Жанр: драма
Год выпуска: 1954
Продолжительность: 01:22:50
Перевод: Профессиональный (многоголосый закадровый) студия Инис
Перевод: Профессиональный (многоголосый закадровый) студия СВ-Дубль
Cубтитры: русские, английские
Оригинальная аудиодорожка: английский-Режиссер: Роберто Росселлини / Roberto Rossellini
В ролях: Ингрид Бергман, Матиас Виман, Ренате Маннхардт, Курт Кройгер, Элизе Аулингер, Эдит Шульце-Веструм, Штеффи Струкс, Аннелоре Вид, Рольф Дейнингер, Альберт Херц, Клаус Кински
Описание: По одноименной новелле Стефана Цвейга.
История о муках, которые приносят измена и обман. Ирэн Вагнер, жена предпринимателя и мать двоих детей, рассталась со своим любовником. Но тени прошлого преследуют ее, к ней приходит бывшая любовница ее возлюбленного и начинает шантажировать Ирэн. Она запутывается в клубке лжи, однако, каково будет ее удивление, когда она узнает, кто подстроил этот шантаж…
IMDb || КиноПоиск-Тип релиза: BDRemux 1080p [Fear 1954 1080p Blu-ray AVC LPCM 2.0-LAZERS]
Контейнер: MKV
Видео: MPEG-4 AVC Video, 1920x1080 at 24 fps, 26695 kbps
Аудио#1: Russian: 48 kHz, AC3, 2.0 ch, 192 kbps
Аудио#2: Russian: 48 kHz, AC3, 2.0 ch, 192 kbps
Аудио#3: English: 48 kHz, FLAC, 2.0 ch, 207 kbps
Формат субтитров: softsub (SRT)
Сэмпл

Дополнительно

Под переводами итальянский дубляж. На отсутствующие фрагменты субтитры.-Отличия международной версии (La paura/Fear) от сокращенной (Non credo piu all'amore):
  • отсутствуют закадровые реплики героини Бергман
  • дополнительные сцены (8 минут)
  • другая концовка

MediaInfo

General
Unique ID : 222189091726765518736666676242191404590 (0xA72810007A1AC15E858E2CBF1842CE2E)
Complete name : La.paura.1954.BFI.BDRemux. rutracker.mkv
Format : Matroska
Format version : Version 2
File size : 15.8 GiB
Duration : 1h 22mn
Overall bit rate mode : Variable
Overall bit rate : 27.3 Mbps
Movie name : Release for RuTracker
Writing application : mkvmerge v5.0.1 ('Es ist Sommer') built on Nov 6 2011 16:23:40
Writing library : libebml v1.2.2 + libmatroska v1.3.0
Video
ID : 1
Format : AVC
Format/Info : Advanced Video Codec
Format profile : High@L4.1
Format settings, CABAC : Yes
Format settings, ReFrames : 4 frames
Format settings, GOP : M=3, N=24
Codec ID : V_MPEG4/ISO/AVC
Duration : 1h 22mn
Bit rate mode : Variable
Maximum bit rate : 35.0 Mbps
Width : 1 920 pixels
Height : 1 080 pixels
Display aspect ratio : 16:9
Frame rate mode : Constant
Frame rate : 24.000 fps
Standard : NTSC
Color space : YUV
Chroma subsampling : 4:2:0
Bit depth : 8 bits
Scan type : Progressive
Title : La.paura.1954.BFI.BDRemux. rutracker
Language : English
Default : Yes
Forced : No
Color primaries : BT.709
Transfer characteristics : BT.709
Matrix coefficients : BT.709
Audio #1
ID : 2
Format : AC-3
Format/Info : Audio Coding 3
Mode extension : CM (complete main)
Format settings, Endianness : Big
Codec ID : A_AC3
Duration : 1h 22mn
Bit rate mode : Constant
Bit rate : 192 Kbps
Channel(s) : 2 channels
Channel positions : Front: L R
Sampling rate : 48.0 KHz
Bit depth : 16 bits
Compression mode : Lossy
Stream size : 114 MiB (1%)
Title : студия Инис
Language : Russian
Default : Yes
Forced : No
Audio #2
ID : 3
Format : AC-3
Format/Info : Audio Coding 3
Mode extension : CM (complete main)
Format settings, Endianness : Big
Codec ID : A_AC3
Duration : 1h 22mn
Bit rate mode : Constant
Bit rate : 192 Kbps
Channel(s) : 2 channels
Channel positions : Front: L R
Sampling rate : 48.0 KHz
Bit depth : 16 bits
Compression mode : Lossy
Stream size : 114 MiB (1%)
Title : студия СВ-Дубль
Language : Russian
Default : No
Forced : No
Audio #3
ID : 4
Format : FLAC
Format/Info : Free Lossless Audio Codec
Codec ID : A_FLAC
Duration : 1h 22mn
Bit rate mode : Variable
Channel(s) : 2 channels
Sampling rate : 48.0 KHz
Bit depth : 16 bits
Writing library : libFLAC 20080709 (UTC 2008-07-09)
Language : English
Default : No
Forced : No
Text #1
ID : 5
Format : UTF-8
Codec ID : S_TEXT/UTF8
Codec ID/Info : UTF-8 Plain Text
Title : forced
Language : Russian
Default : Yes
Forced : No
Text #2
ID : 6
Format : UTF-8
Codec ID : S_TEXT/UTF8
Codec ID/Info : UTF-8 Plain Text
Title : full
Language : Russian
Default : No
Forced : No
Text #3
ID : 7
Format : UTF-8
Codec ID : S_TEXT/UTF8
Codec ID/Info : UTF-8 Plain Text
Language : English
Default : No
Forced : No
Menu
00:00:00.000 : en:Opening credits/Erich
00:07:00.375 : en:Guilt
00:13:49.416 : en:The plant
00:21:52.000 : en:Scrounging for money
00:26:35.000 : en:The children
00:33:49.000 : en:A missing rifle
00:41:36.000 : en:At the concert
00:48:25.000 : en:The ring
00:51:49.750 : en:The storm
00:59:14.500 : en:Plotting
01:06:06.750 : en:A final meeting
01:11:33.833 : en:Saying goodbye

Скриншоты


_________________
Показать сообщения:    

Текущее время: Сегодня 15:42

Часовой пояс: GMT



Вы не можете начинать темы
Вы не можете отвечать на сообщения
Вы не можете редактировать свои сообщения
Вы не можете удалять свои сообщения
Вы не можете голосовать в опросах
Вы не можете прикреплять файлы к сообщениям
Вы не можете скачивать файлы
Наши партнеры: интернет магазин Ивановского трикотажа textilla.ru