Ивановский Торрент трекер
Яндекс.Погода
 

[Цитировать]
HUNTER

-Боязнь высоты / Страх высоты / High Anxiety-Страна: США
Жанр: триллер, комедия
Год выпуска: 1977
Продолжительность: 01:34:05-Перевод: Профессиональный (двухголосый закадровый) ОРТ / Первый канал
Перевод 2: Авторский (одноголосый закадровый) Алексей Михалев
Cубтитры: русские , английские
Оригинальная аудиодорожка: английский-Режиссер: Мел Брукс / Mel Brooks
В ролях: Мел Брукс (Dr. Richard H. Thorndyke), Мэдлин Кан (Victoria Brisbane), Клорис Личмен (Nurse Charlotte Diesel), Харви Кормен (Dr. Charles Montague), Рон Кэри (Brophy), Ховард Моррис (Professor Lilloman), Дик Ван Пэттен (Dr. Philip Wentworth), Джек Райли (Desk Clerk at Hyatt Regency), Чарли Каллас (Cocker Spaniel), Рон Кларк (Zachary Cartwright III), Руди Де Лука (Braces), Барри Левинсон (Dennis the Bellboy)-Описание: Доктор Роберт Торндайк назначен директором психоневрологической клиники для очень, очень нервных. В процессе работы он начинает улавливать наполняющие это заведение флюиды зла, и сам становится жертвой акрофобии, что делает его таким же нервным, как и пациенты, которых он пытается лечить.
Каждый новый случай - это жалящее смехом невероятное испытание, которое в итоге заставляет нашего героя побороть в себе присущий ему страх высоты и опасения за собственную жизнь и за вверенное ему заведение.-Сэмпл: http://yadi.sk/d/72NuFujM7dt7E-Тип релиза: BDRemux 1080p
Контейнер: MKV
Видео: MPEG-4 AVC Video 26986 kbps 1080p / 23.976 fps / 16:9 / High Profile 4.1
Аудио: Dolby Digital Audio Russian 2.0 / 48 kHz / 192 kbps | ОРТ
Аудио 2: Dolby Digital Audio Russian 5.1 / 48 kHz / 448 kbps | Михалев
Аудио 3: DTS-HD Master Audio English 5.1 / 48 kHz / 3430 kbps / 24-bit (DTS Core: 5.1 / 48 kHz / 1509 kbps / 24-bit)
Формат субтитров: softsub (SRT)

MI

General
Complete name                    : W:\Фильмы\Мел Брукс\Боязнь высоты (1977. High Anxiety).mkv
Format                           : Matroska
File size                        : 20.4 GiB
Duration                         : 1h 34mn
Overall bit rate                 : 31.1 Mbps
Movie name                       : Release for RuTracker
Encoded date                     : UTC 2013-08-06 21:41:45
Writing application              : mkvmerge v4.9.1 ('Ich will') сборка от Jul 11 2011 23:53:15
Writing library                  : libebml v1.2.1 + libmatroska v1.1.1
Video
ID                               : 1
Format                           : AVC
Format/Info                      : Advanced Video Codec
Format profile                   : High@L4.1
Format settings, CABAC           : Yes
Format settings, ReFrames        : 2 frames
Muxing mode                      : Container profile=Unknown@4.1
Codec ID                         : V_MPEG4/ISO/AVC
Duration                         : 1h 34mn
Bit rate mode                    : Variable
Width                            : 1 920 pixels
Height                           : 1 080 pixels
Display aspect ratio             : 16:9
Frame rate                       : 23.976 fps
Color space                      : YUV
Chroma subsampling               : 4:2:0
Bit depth                        : 8 bits
Scan type                        : Progressive
Language                         : English
Audio #1
ID                               : 2
Format                           : AC-3
Format/Info                      : Audio Coding 3
Mode extension                   : CM (complete main)
Codec ID                         : A_AC3
Duration                         : 1h 34mn
Bit rate mode                    : Constant
Bit rate                         : 192 Kbps
Channel(s)                       : 2 channels
Channel positions                : Front: L R
Sampling rate                    : 48.0 KHz
Bit depth                        : 16 bits
Stream size                      : 129 MiB (1%)
Title                            : MVO [ОРТ]
Language                         : Russian
Audio #2
ID                               : 3
Format                           : AC-3
Format/Info                      : Audio Coding 3
Mode extension                   : CM (complete main)
Codec ID                         : A_AC3
Duration                         : 1h 34mn
Bit rate mode                    : Constant
Bit rate                         : 448 Kbps
Channel(s)                       : 6 channels
Channel positions                : Front: L C R, Side: L R, LFE
Sampling rate                    : 48.0 KHz
Bit depth                        : 16 bits
Stream size                      : 302 MiB (1%)
Title                            : Алексей Михалев
Language                         : Russian
Audio #3
ID                               : 4
Format                           : DTS
Format/Info                      : Digital Theater Systems
Format profile                   : MA
Codec ID                         : A_DTS
Duration                         : 1h 34mn
Bit rate mode                    : Variable
Channel(s)                       : 6 channels
Channel positions                : Front: L C R, Side: L R, LFE
Sampling rate                    : 48.0 KHz
Bit depth                        : 24 bits
Language                         : English
Text #1
ID                               : 5
Format                           : UTF-8
Codec ID                         : S_TEXT/UTF8
Codec ID/Info                    : UTF-8 Plain Text
Language                         : Russian
Text #2
ID                               : 6
Format                           : UTF-8
Codec ID                         : S_TEXT/UTF8
Codec ID/Info                    : UTF-8 Plain Text
Language                         : English
Menu
00:00:00.000                     : en:00:00:00.000
00:05:49.683                     : en:00:05:49.683
00:07:08.428                     : en:00:07:08.428
00:08:49.612                     : en:00:08:49.612
00:11:17.051                     : en:00:11:17.051
00:13:36.566                     : en:00:13:36.566
00:15:44.527                     : en:00:15:44.527
00:20:11.836                     : en:00:20:11.836
00:23:13.642                     : en:00:23:13.642
00:27:29.773                     : en:00:27:29.773
00:29:08.372                     : en:00:29:08.372
00:32:41.168                     : en:00:32:41.168
00:35:45.393                     : en:00:35:45.393
00:39:22.277                     : en:00:39:22.277
00:40:52.325                     : en:00:40:52.325
00:45:08.164                     : en:00:45:08.164
00:47:46.697                     : en:00:47:46.697
00:51:36.719                     : en:00:51:36.719
00:56:33.807                     : en:00:56:33.807
00:58:32.134                     : en:00:58:32.134
01:01:09.499                     : en:01:01:09.499
01:03:11.329                     : en:01:03:11.329
01:05:33.138                     : en:01:05:33.138
01:08:34.610                     : en:01:08:34.610
01:13:58.768                     : en:01:13:58.768
01:18:28.120                     : en:01:18:28.120
01:22:11.301                     : en:01:22:11.301
01:24:44.621                     : en:01:24:44.621
01:27:00.048                     : en:01:27:00.048
01:28:51.409                     : en:01:28:51.409
01:30:54.074                     : en:01:30:54.074
01:31:41.496                     : en:01:31:41.496

Скриншоты


  • ОРТ с этой раздачи. Спасибо ingwar за исходник и DIABLO93 за работу со звуком. Первые три минуты перевода утеряны, заменены Михалевым.
  • Озвучка Михалева отсюда.
  • Русские сабы найдены в сети.
Показать сообщения:    

Текущее время: 24-Окт 10:32

Часовой пояс: UTC - 1


Вы не можете начинать темы
Вы не можете отвечать на сообщения
Вы не можете редактировать свои сообщения
Вы не можете удалять свои сообщения
Вы не можете голосовать в опросах
Вы не можете прикреплять файлы к сообщениям
Вы не можете скачивать файлы

!ВНИМАНИЕ!
Сайт не предоставляет электронные версии произведений, а занимается лишь коллекционированием и каталогизацией ссылок, присылаемых и публикуемых на форуме нашими читателями. Если вы являетесь правообладателем какого-либо представленного материала и не желаете, чтобы ссылка на него находилась в нашем каталоге, свяжитесь с нами, и мы незамедлительно удалим ее. Файлы для обмена на трекере предоставлены пользователями сайта, и администрация не несет ответственности за их содержание. Просьба не заливать файлы, защищенные авторскими правами, а также файлы нелегального содержания!