Ивановский Торрент трекер
Яндекс.Погода
 

[Цитировать]
HUNTER

Странная жизнь Тимоти Грина / The Odd Life of Timothy Green- Страна: США
Студия: Monsterfoot Productions, Scott Sanders Productions, Walt Disney Pictures
Жанр: фэнтези, драма, комедия
Год выпуска: 2012
Продолжительность: 01:44:37
Перевод: Профессиональный (дублированный)
Cубтитры: русские (forced, full), английские (full, SDH, Commentary)
Оригинальная аудиодорожка: английский-Режиссер: Питер Хеджес / Peter Hedges-В ролях: Дженнифер Гарнер, Джоэл Эдгертон, Рон Ливингстон, Дайэнн Уист, Розмари ДеУитт, Майкл Арден, Коммон, Лоис Смит, Рода Гриффис, Мэтти Липтак, Шарон Моррис-Описание: Одна пара потеряла последнюю надежду зачать ребенка, но однажды происходит чудо — младенец появляется на свет. Но он оказывается не тем, кем кажется на первый взгляд…-Тип релиза: BDRip 1080p [The.Odd.Life.of.Timothy.Green.2012.1080p.BluRay.x264.DTS-HDChina]
Контейнер: MKV
Видеокодек: MPEG-4 AVC
Аудиокодек: AC3 + DTS
Видео: MPEG-4 AVC / 18,8 Mbps / 1920x1040 / 23,976 fps / 1,85:1 / High Profile 4.1
Аудио: AC3 / 5.1 / 48 kHz / 640 kbps / 16 bits |Dub|
Аудио 2: DTS / 5.1 / 48 kHz / 1510 kbps / 24 bits |original|
Аудио 3: AC3 / 2.0 / 48 kHz / 192 kbps / 16 bits |Commentary|
Формат субтитров: softsub [SRT]
-

MI

Общее
Уникальный идентификатор : 246028397720831958622117599588532314290 (0xB917588893FDB28A842FA49312EB60B2)
Полное имя : G:\HD\Странная жизнь Тимоти Грина.2012.BDRip.(1080p).mkv
Формат : Matroska
Версия формата : Version 2
Размер файла : 15,5 Гбайт
Продолжительность : 1 ч. 44 м.
Общий поток : 21,1 Мбит/сек
Дата кодирования : UTC 2012-12-05 02:55:52
Программа кодирования : mkvmerge v5.8.0 ('No Sleep / Pillow') built on Sep 2 2012 15:37:04
Библиотека кодирования : libebml v1.2.3 + libmatroska v1.3.0
Видео
Идентификатор : 1
Формат : AVC
Формат/Информация : Advanced Video Codec
Профиль формата : High@L4.1
Параметр CABAC формата : Да
Параметр ReFrames формата : 4 кадра
Идентификатор кодека : V_MPEG4/ISO/AVC
Продолжительность : 1 ч. 44 м.
Битрейт : 18,8 Мбит/сек
Ширина : 1920 пикселей
Высота : 1040 пикселей
Соотношение сторон : 1,85:1
Режим частоты кадров : Постоянный
Частота кадров : 23,976 кадра/сек
Цветовое пространство : YUV
Субдискретизация насыщенности : 4:2:0
Битовая глубина : 8 бит
Тип развёртки : Прогрессивная
Бит/(Пиксели*Кадры) : 0.393
Размер потока : 13,4 Гбайт (87%)
Заголовок : The.Odd.Life.of.Timothy.Green.2012.1080p.BluRay.x264.DTS-HDChina
Библиотека кодирования : x264 core 128 r2216+688+33 06dac27 tMod+MixAQ [8-bit@4:2:0 X86_64]
Настройки программы : cabac=1 / ref=4 / deblock=1:-3:-3 / analyse=0x3:0x113 / me=umh / subme=11 / psy=1 / fade_compensate=0.00 / psy_rd=1.10:0.00 / mixed_ref=1 / me_range=48 / chroma_me=1 / trellis=2 / 8x8dct=1 / cqm=0 / deadzone=21,11 / fast_pskip=0 / chroma_qp_offset=-2 / threads=18 / lookahead_threads=3 / sliced_threads=0 / nr=0 / decimate=0 / interlaced=0 / bluray_compat=0 / constrained_intra=0 / fgo=0 / bframes=8 / b_pyramid=2 / b_adapt=2 / b_bias=0 / direct=3 / weightb=1 / open_gop=0 / weightp=2 / keyint=240 / keyint_min=24 / scenecut=40 / intra_refresh=0 / rc_lookahead=240 / rc=2pass / mbtree=1 / bitrate=18800 / ratetol=1.0 / qcomp=0.70 / qpmin=0 / qpmax=69 / qpstep=4 / cplxblur=20.0 / qblur=0.5 / ip_ratio=1.10 / aq=4 / aq-strength=1.05 / aq-sensitivity=10.00 / aq-ifactor=1.00 / aq-pfactor=1.00 / aq-bfactor=1.00 / aq2=0
Язык : English
Default : Да
Forced : Нет
Аудио #1
Идентификатор : 2
Формат : AC-3
Формат/Информация : Audio Coding 3
Расширение режима : CM (complete main)
Параметр Endianness формата : Big
Идентификатор кодека : A_AC3
Продолжительность : 1 ч. 44 м.
Вид битрейта : Постоянный
Битрейт : 640 Кбит/сек
Каналы : 6 каналов
Расположение каналов : Front: L C R, Side: L R, LFE
Частота : 48,0 КГц
Битовая глубина : 16 бит
Метод сжатия : С потерями
Размер потока : 479 Мбайт (3%)
Язык : Russian
Default : Да
Forced : Нет
Аудио #2
Идентификатор : 3
Формат : DTS
Формат/Информация : Digital Theater Systems
Режим : 16
Параметр Endianness формата : Big
Идентификатор кодека : A_DTS
Продолжительность : 1 ч. 44 м.
Вид битрейта : Постоянный
Битрейт : 1509 Кбит/сек
Каналы : 6 каналов
Расположение каналов : Front: L C R, Side: L R, LFE
Частота : 48,0 КГц
Битовая глубина : 24 бит
Метод сжатия : С потерями
Размер потока : 1,10 Гбайт (7%)
Язык : English
Default : Нет
Forced : Нет
Аудио #3
Идентификатор : 4
Формат : AC-3
Формат/Информация : Audio Coding 3
Расширение режима : CM (complete main)
Параметр Endianness формата : Big
Идентификатор кодека : A_AC3
Продолжительность : 1 ч. 44 м.
Вид битрейта : Постоянный
Битрейт : 192 Кбит/сек
Каналы : 2 канала
Расположение каналов : Front: L R
Частота : 48,0 КГц
Битовая глубина : 16 бит
Метод сжатия : С потерями
Размер потока : 144 Мбайт (1%)
Заголовок : Commentary
Язык : English
Default : Нет
Forced : Нет
Текст #1
Идентификатор : 5
Формат : UTF-8
Идентификатор кодека : S_TEXT/UTF8
Идентификатор кодека/Информация : UTF-8 Plain Text
Заголовок : Russian (Forced)
Язык : Russian
Default : Да
Forced : Нет
Текст #2
Идентификатор : 6
Формат : UTF-8
Идентификатор кодека : S_TEXT/UTF8
Идентификатор кодека/Информация : UTF-8 Plain Text
Заголовок : Russian (Full)
Язык : Russian
Default : Нет
Forced : Нет
Текст #3
Идентификатор : 7
Формат : UTF-8
Идентификатор кодека : S_TEXT/UTF8
Идентификатор кодека/Информация : UTF-8 Plain Text
Заголовок : English (Full)
Язык : English
Default : Нет
Forced : Нет
Текст #4
Идентификатор : 8
Формат : UTF-8
Идентификатор кодека : S_TEXT/UTF8
Идентификатор кодека/Информация : UTF-8 Plain Text
Заголовок : English (SDH)
Язык : English
Default : Нет
Forced : Нет
Текст #5
Идентификатор : 9
Формат : UTF-8
Идентификатор кодека : S_TEXT/UTF8
Идентификатор кодека/Информация : UTF-8 Plain Text
Заголовок : English (Commentary)
Язык : English
Default : Нет
Forced : Нет
Меню
00:00:00.000 : en:00:00:00.000
00:07:41.670 : en:00:07:41.670
00:13:27.140 : en:00:13:27.140
00:19:17.823 : en:00:19:17.823
00:26:26.502 : en:00:26:26.502
00:31:36.186 : en:00:31:36.186
00:34:57.804 : en:00:34:57.804
00:38:03.114 : en:00:38:03.114
00:41:12.970 : en:00:41:12.970
00:45:14.253 : en:00:45:14.253
00:49:19.874 : en:00:49:19.874
00:57:21.521 : en:00:57:21.521
01:04:20.565 : en:01:04:20.565
01:09:59.612 : en:01:09:59.612
01:13:32.992 : en:01:13:32.992
01:21:51.990 : en:01:21:51.990
01:26:45.575 : en:01:26:45.575
01:31:30.151 : en:01:31:30.151
01:36:31.160 : en:01:36:31.160
01:39:48.357 : en:01:39:48.357

Скриншоты



Показать сообщения:    

Текущее время: 16-Окт 20:58

Часовой пояс: UTC - 1


Вы не можете начинать темы
Вы не можете отвечать на сообщения
Вы не можете редактировать свои сообщения
Вы не можете удалять свои сообщения
Вы не можете голосовать в опросах
Вы не можете прикреплять файлы к сообщениям
Вы не можете скачивать файлы

!ВНИМАНИЕ!
Сайт не предоставляет электронные версии произведений, а занимается лишь коллекционированием и каталогизацией ссылок, присылаемых и публикуемых на форуме нашими читателями. Если вы являетесь правообладателем какого-либо представленного материала и не желаете, чтобы ссылка на него находилась в нашем каталоге, свяжитесь с нами, и мы незамедлительно удалим ее. Файлы для обмена на трекере предоставлены пользователями сайта, и администрация не несет ответственности за их содержание. Просьба не заливать файлы, защищенные авторскими правами, а также файлы нелегального содержания!