Важное объявление!
У Нас Все раздачи мультитрекерные, при нуле пиров в релизах, можете смело вставать на закачку!
 
Автор Сообщение

HUNTER

Стаж:
4 года 5 месяцев
Сообщений:
60866

Репутация: 101

[+] [-]
Вне форума [Профиль] [ЛС]

Странная Жизнь Тимоти Грина / The Odd Life Of Timothy Green-
Год выпуска: 2012
Страна: США / Monsterfoot Productions, Scott Sanders Productions, Walt Disney Pictures
Жанр: фэнтези, драма, комедия
Продолжительность: 01:44:37
Перевод: Дублированный [Лицензия]-Режиссер: Питер Хеджес
В ролях: Дженнифер Гарнер, Джоэл Эдгертон, С.Дж. Адамс, Одейя Раш, Шохре Агдашлу, Розмари ДеУитт, Дэвид Морс, М. Эммет Уолш, Лоис Смит, Лин-Мануэль Миранда-О фильме:
Одна пара потеряла последнюю надежду зачать ребенка, но однажды происходит чудо — младенец появляется на свет. Но он оказывается не тем, кем кажется на первый взгляд…-Качество: BDRip 720p
Формат: MKV
Видеокодек: H.264
Аудиокодек: AC3 / DTS
Видео: 1280x694 / 23.976 fps / 7488 kbps
Аудио 1: AC3, 640 kb/s (6 ch) (рус)
Аудио 2: DTS, 1510 kb/s (6 ch) (англ)
Аудио 3: AC3, 192 kb/s (2 ch) (англ. коммент.)-Семпл: http://multi-up.com/798578
-

Доп.Информация:

Релиз группы:
-

Рейтинг

Рейтинг:

MI

General
Unique ID : 226783459872463538620464831276612192476 (0xAA9CE7D71B375C80898CFA77C46608DC)
Complete name : Strannaja.zhizn.Timoti.Grina.2012.D.BDRip.720p.IRONCLUB.mkv
Format : Matroska
Format version : Version 2
File size : 7.32 GiB
Duration : 1h 44mn
Overall bit rate : 10.0 Mbps
Movie name : IRONCLUB
Encoded date : UTC 2012-12-03 17:51:03
Writing application : mkvmerge v4.9.1 ('Ich will') сборка от Jul 11 2011 23:53:15
Writing library : libebml v1.2.1 + libmatroska v1.1.1
Video
ID : 1
Format : AVC
Format/Info : Advanced Video Codec
Format profile : [url=mailto:High@L4.1]High@L4.1[/url]
Format settings, CABAC : Yes
Format settings, ReFrames : 9 frames
Codec ID : V_MPEG4/ISO/AVC
Duration : 1h 44mn
Bit rate : 7 475 Kbps
Width : 1 280 pixels
Height : 694 pixels
Display aspect ratio : 1.85:1
Frame rate mode : Constant
Frame rate : 23.976 fps
Color space : YUV
Chroma subsampling : 4:2:0
Bit depth : 8 bits
Scan type : Progressive
Bits/(Pixel*Frame) : 0.351
Stream size : 5.46 GiB (75%)
Title : The Odd Life of Timothy Green 2012 720p BluRay DTS x264-CtrlHD
Writing library : x264 core 129 r2230 1cffe9f
Encoding settings : cabac=1 / ref=9 / deblock=1:-3:-3 / analyse=0x3:0x133 / me=umh / subme=10 / psy=1 / psy_rd=1.10:0.00 / mixed_ref=1 / me_range=48 / chroma_me=1 / trellis=2 / 8x8dct=1 / cqm=0 / deadzone=21,11 / fast_pskip=0 / chroma_qp_offset=-2 / threads=15 / lookahead_threads=2 / sliced_threads=0 / nr=0 / decimate=1 / interlaced=0 / bluray_compat=0 / constrained_intra=0 / bframes=8 / b_pyramid=2 / b_adapt=2 / b_bias=0 / direct=3 / weightb=1 / open_gop=0 / weightp=2 / keyint=250 / keyint_min=23 / scenecut=40 / intra_refresh=0 / rc_lookahead=60 / rc=crf / mbtree=1 / crf=16.0 / qcomp=0.70 / qpmin=0 / qpmax=69 / qpstep=4 / vbv_maxrate=40000 / vbv_bufsize=30000 / crf_max=0.0 / nal_hrd=none / ip_ratio=1.40 / aq=1:0.80
Language : English
Default : Yes
Forced : Yes
Audio #1
ID : 2
Format : AC-3
Format/Info : Audio Coding 3
Mode extension : CM (complete main)
Format settings, Endianness : Big
Codec ID : A_AC3
Duration : 1h 44mn
Bit rate mode : Constant
Bit rate : 640 Kbps
Channel(s) : 6 channels
Channel positions : Front: L C R, Side: L R, LFE
Sampling rate : 48.0 KHz
Bit depth : 16 bits
Compression mode : Lossy
Stream size : 479 MiB (6%)
Title : DD 5.1 @ 640 kbps - Dub, BD CEE
Language : Russian
Default : Yes
Forced : Yes
Audio #2
ID : 3
Format : DTS
Format/Info : Digital Theater Systems
Mode : 16
Format settings, Endianness : Big
Codec ID : A_DTS
Duration : 1h 44mn
Bit rate mode : Constant
Bit rate : 1 509 Kbps
Channel(s) : 6 channels
Channel positions : Front: L C R, Side: L R, LFE
Sampling rate : 48.0 KHz
Bit depth : 24 bits
Compression mode : Lossy
Stream size : 1.10 GiB (15%)
Title : DTS 5.1 2 1536 kbps
Language : English
Default : No
Forced : No
Audio #3
ID : 4
Format : AC-3
Format/Info : Audio Coding 3
Mode extension : CM (complete main)
Format settings, Endianness : Big
Codec ID : A_AC3
Duration : 1h 44mn
Bit rate mode : Constant
Bit rate : 192 Kbps
Channel(s) : 2 channels
Channel positions : Front: L R
Sampling rate : 48.0 KHz
Bit depth : 16 bits
Compression mode : Lossy
Stream size : 144 MiB (2%)
Title : Commentary
Language : English
Default : No
Forced : No
Text #1
ID : 5
Format : UTF-8
Codec ID : S_TEXT/UTF8
Codec ID/Info : UTF-8 Plain Text
Title : Full BD
Language : Russian
Default : No
Forced : No
Text #2
ID : 6
Format : UTF-8
Codec ID : S_TEXT/UTF8
Codec ID/Info : UTF-8 Plain Text
Title : Forced
Language : Russian
Default : No
Forced : No
Text #3
ID : 7
Format : UTF-8
Codec ID : S_TEXT/UTF8
Codec ID/Info : UTF-8 Plain Text
Language : English
Default : No
Forced : No
Text #4
ID : 8
Format : UTF-8
Codec ID : S_TEXT/UTF8
Codec ID/Info : UTF-8 Plain Text
Title : SDH
Language : English
Default : No
Forced : No
Menu
00:00:00.000 : en:00:00:00.000
00:07:41.670 : en:00:07:41.670
00:13:27.140 : en:00:13:27.140
00:19:17.823 : en:00:19:17.823
00:26:26.502 : en:00:26:26.502
00:31:36.186 : en:00:31:36.186
00:34:57.804 : en:00:34:57.804
00:38:03.114 : en:00:38:03.114
00:41:12.970 : en:00:41:12.970
00:45:14.253 : en:00:45:14.253
00:49:19.874 : en:00:49:19.874
00:57:21.521 : en:00:57:21.521
01:04:20.565 : en:01:04:20.565
01:09:59.612 : en:01:09:59.612
01:13:32.992 : en:01:13:32.992
01:21:51.990 : en:01:21:51.990
01:26:45.575 : en:01:26:45.575
01:31:30.151 : en:01:31:30.151
01:36:31.160 : en:01:36:31.160
01:39:48.357 : en:01:39:48.357

Скриншоты:

Оформление by FireSiD

_________________
Показать сообщения:    

Текущее время: Сегодня 14:25

Часовой пояс: GMT



Вы не можете начинать темы
Вы не можете отвечать на сообщения
Вы не можете редактировать свои сообщения
Вы не можете удалять свои сообщения
Вы не можете голосовать в опросах
Вы не можете прикреплять файлы к сообщениям
Вы не можете скачивать файлы
Наши партнеры: интернет магазин Ивановского трикотажа textilla.ru