Странная жизнь Тимоти Грина / The Odd Life of Timothy Green (Питер Хеджес) [2012, фэнтези, драма, комедия, Blu-Ray EUR 1080p AVC DD 5.1] :: Ивановский Торрент трекер
Важное объявление!
У Нас Все раздачи мультитрекерные, при нуле пиров в релизах, можете смело вставать на закачку!
 
Автор Сообщение

HUNTER

Стаж:
4 года 11 месяцев
Сообщений:
66045

Репутация: 101

[+] [-]
Вне форума [Профиль] [ЛС]

Странная жизнь Тимоти Грина / The Odd Life of Timothy Green-«He's a force of nature.»-
Год выпуска: 2012
Страны: США
Жанры: фэнтези, драма, комедия
Продолжительность: 01:44:37
Перевод: Профессиональный
Cубтитры: Английский, Испанский, Португальский, Китайский, Корейский, Вьетнамский, Индонезийский, Тайский, Русский-Режиссер: Питер Хеджес
Сценарий: Питер Хеджес, Ахмет Заппа
Продюсер: Скотт Сандерс, Джеймс Уитакер, Ахмет Заппа
Оператор: Джон Толл
Композитор : Джеф Дзанелли
Художник: Винн Томас, Джеймс Хегедус, Сьюзи ДеСанто
Монтаж: Эндрю Мондшейн-В ролях: Дженнифер Гарнер / Jennifer Garner (Cindy Green), Джоэл Эдгертон / Joel Edgerton (Jim Green), С.Дж. Адамс / CJ Adams (Timothy Green), Одейя Раш / Odeya Rush (Joni Jerome), Шохре Агдашлу / Shohreh Aghdashloo (Evette Onat), Розмари ДеУитт / Rosemarie DeWitt (Brenda Best), Дэвид Морс / David Morse (James Green, Sr.), М. Эммет Уолш / M. Emmet Walsh (Uncle Bub), Лоис Смит / Lois Smith (Aunt Mel), Лин-Мануэль Миранда / Lin-Manuel Miranda (Reggie)
-Описание: Одна пара потеряла последнюю надежду зачать ребенка, но однажды происходит чудо — младенец появляется на свет. Но он оказывается не тем, кем кажется на первый взгляд…-Сборы в США: $51 598 371
Зрители: Норвегия 308 чел.
Премьера (мир): 15 августа 2012
Релиз на DVD: 11 декабря 2012, «Уолт Дисней Компани СНГ»
Релиз на Blu-Ray: 11 декабря 2012, «Уолт Дисней Компани СНГ»-Рейтинг MPAA: Рекомендуется присутствие родителей
Рейтинг:-Качество: Blu-Ray
Формат: m2ts
Видео кодек: AVC
Аудио кодек: DTS-HD
Видео: 1920x1080 (16:9), 23.976 fps, AVC, 35,5 Мбит/сек
Аудио: Английский: DTS-HD, 48.0 KHz, 6 ch, 24 бит
Испанский: AC3, 640 Kbps, 48.0 KHz, 6 ch, 16 бит
Португальский: AC3, 640 Kbps, 48.0 KHz, 6 ch, 16 бит
Тайский: AC3, 320 Kbps, 48.0 KHz, 2 ch, 16 бит
Русский: AC3, 640 Kbps, 48.0 KHz, 6 ch, 16 бит-

Странная жизнь Тимоти Грина. Русский трейлер '2012'. HD

МедиаИнфо

Код: copyText_writeLink('this.parentNode.parentNode.nextSibling.nextSibling'); General
ID : 0
Complete name : 00800.m2ts
Format : BDAV
Format/Info : Blu-ray Video
File size : 31.2 GiB
Duration : 1h 44mn
Overall bit rate : 42.7 Mbps
Maximum Overall bit rate : 48.0 Mbps
Video
ID : 4113 (0x1011)
Menu ID : 1 (0x1)
Format : AVC
Format/Info : Advanced Video Codec
Format profile : [url=mailto:High@L4.1]High@L4.1[/url]
Format settings, CABAC : Yes
Format settings, ReFrames : 4 frames
Duration : 1h 44mn
Bit rate mode : Variable
Maximum bit rate : 35.5 Mbps
Width : 1 920 pixels
Height : 1 080 pixels
Display aspect ratio : 16:9
Frame rate : 23.976 fps
Color space : YUV
Chroma subsampling : 4:2:0
Bit depth : 8 bits
Scan type : Progressive
Audio #1
ID : 4352 (0x1100)
Menu ID : 1 (0x1)
Format : DTS
Format/Info : Digital Theater Systems
Format profile : MA
Muxing mode : Stream extension
Duration : 1h 44mn
Bit rate mode : Variable
Channel(s) : 6 channels
Channel positions : Front: L C R, Side: L R, LFE
Sampling rate : 48.0 KHz
Bit depth : 24 bits
Audio #2
ID : 4353 (0x1101)
Menu ID : 1 (0x1)
Format : AC-3
Format/Info : Audio Coding 3
Mode extension : CM (complete main)
Duration : 1h 44mn
Bit rate mode : Constant
Bit rate : 640 Kbps
Channel(s) : 6 channels
Channel positions : Front: L C R, Side: L R, LFE
Sampling rate : 48.0 KHz
Bit depth : 16 bits
Stream size : 479 MiB (1%)
Audio #3
ID : 4354 (0x1102)
Menu ID : 1 (0x1)
Format : AC-3
Format/Info : Audio Coding 3
Mode extension : CM (complete main)
Duration : 1h 44mn
Bit rate mode : Constant
Bit rate : 640 Kbps
Channel(s) : 6 channels
Channel positions : Front: L C R, Side: L R, LFE
Sampling rate : 48.0 KHz
Bit depth : 16 bits
Stream size : 479 MiB (1%)
Audio #4
ID : 4355 (0x1103)
Menu ID : 1 (0x1)
Format : AC-3
Format/Info : Audio Coding 3
Format profile : Dolby Digital
Mode extension : CM (complete main)
Duration : 1h 44mn
Bit rate mode : Constant
Bit rate : 320 Kbps
Channel(s) : 2 channels
Channel positions : Front: L R
Sampling rate : 48.0 KHz
Bit depth : 16 bits
Stream size : 239 MiB (1%)
Audio #5
ID : 4356 (0x1104)
Menu ID : 1 (0x1)
Format : AC-3
Format/Info : Audio Coding 3
Mode extension : CM (complete main)
Duration : 1h 44mn
Bit rate mode : Constant
Bit rate : 640 Kbps
Channel(s) : 6 channels
Channel positions : Front: L C R, Side: L R, LFE
Sampling rate : 48.0 KHz
Bit depth : 16 bits
Stream size : 479 MiB (1%)
Text #1
ID : 4608 (0x1200)
Menu ID : 1 (0x1)
Format : PGS
Text #2
ID : 4609 (0x1201)
Menu ID : 1 (0x1)
Format : PGS
Text #3
ID : 4610 (0x1202)
Menu ID : 1 (0x1)
Format : PGS
Text #4
ID : 4611 (0x1203)
Menu ID : 1 (0x1)
Format : PGS
Text #5
ID : 4612 (0x1204)
Menu ID : 1 (0x1)
Format : PGS
Text #6
ID : 4613 (0x1205)
Menu ID : 1 (0x1)
Format : PGS
Text #7
ID : 4614 (0x1206)
Menu ID : 1 (0x1)
Format : PGS
Text #8
ID : 4615 (0x1207)
Menu ID : 1 (0x1)
Format : PGS
Text #9
ID : 4616 (0x1208)
Menu ID : 1 (0x1)
Format : PGS
Text #10
ID : 4617 (0x1209)
Menu ID : 1 (0x1)
Format : PGS
Text #11
ID : 4618 (0x120A)
Menu ID : 1 (0x1)
Format : PGS
Text #12
ID : 4619 (0x120B)
Menu ID : 1 (0x1)
Format : PGS
Text #13
ID : 4620 (0x120C)
Menu ID : 1 (0x1)
Format : PGS
Text #14
ID : 4621 (0x120D)
Menu ID : 1 (0x1)
Format : PGS
Text #15
ID : 4622 (0x120E)
Menu ID : 1 (0x1)
Format : PGS
- - -

_________________
Показать сообщения:    

Текущее время: Сегодня 15:42

Часовой пояс: GMT



Вы не можете начинать темы
Вы не можете отвечать на сообщения
Вы не можете редактировать свои сообщения
Вы не можете удалять свои сообщения
Вы не можете голосовать в опросах
Вы не можете прикреплять файлы к сообщениям
Вы не можете скачивать файлы