Важное объявление!
У Нас Все раздачи мультитрекерные, при нуле пиров в релизах, можете смело вставать на закачку!
 
Автор Сообщение

димитри37

Стаж:
4 года 2 месяца
Сообщений:
1236

Репутация: 127

[+] [-]
Вне форума [Профиль] [ЛС]

Страна чудаков / Orange County
«It's not just a place. It's a state of mind»
-
Год выпуска: 2002
Страна: США
Жанр: драма, комедия
Продолжительность: 01:22:12
Перевод: Профессиональный (дублированный)
Cубтитры: нет-Режиссер: Джейк Кэздан / Jake Kasdan-В ролях: Колин Хэнкс, Джек Блэк, Скайлер Фиск, Брэт Харрисон, Кайл Ховард, Р.Дж. Нолл, Кэтрин О’Хара, Майк Уайт, Джон Литгоу, Лили Томлин-Описание: Шон Брумдер, занимаясь серфингом, нашел в песке на пляже копию романа Маркуса Скиннера. Эта книга легендарного автора, который преподает в университета Стэнфорда, оказывает большое влияние на Шона. После этого молодой человек решает, что должен стать писателем. Но его мечты о посещении университете Стэнфорда и учебе под руководством известного наставника рушатся, когда по ошибке вместо документов Шона туда отправляют документы плохого ученика. С помощью своей подруги Эшли и брата-наркомана Шон пытается убедить школьное руководство пересмотреть его заявление. После ряда трагических неудач, Шону остается последнее средство — за день до окончания приема мчаться в университет, посадив за руль отморозка-братца и прихватив для поддержки свою подружку.- -Качество: WEB-DLRip
Формат: AVI
Видео: 720x400 (1.80:1), 23.976 fps, XviD build 65 ~2141 kbps avg, 0.31 bit/pixel
Аудио: 48 kHz, AC3 Dolby Digital, 3/2 (L,C,R,l,r) + LFE ch, ~384.00 kbps avg-

Media Info

Код:
Формат                                   : AVI
Формат/Информация                        : Audio Video Interleave
Размер файла                             : 1,46 Гбайт
Продолжительность                        : 1 ч. 22 м.
Общий поток                              : 2535 Кбит/сек
Программа кодирования                    : VirtualDubMod 1.5.10.3 | www.virtualdub-fr.org || (build 2550/release)
Библиотека кодирования                   : VirtualDubMod build 2550/release
Видео
Идентификатор                            : 0
Формат                                   : MPEG-4 Visual
Профиль формата                          : Advanced Simple@L5
Параметр BVOP формата                    : 1
Параметр QPel формата                    : Нет
Параметр GMC формата                     : Без точки перехода
Параметр матрицы формата                 : Выборочная
Идентификатор кодека                     : XVID
Идентификатор кодека/Подсказка           : XviD
Продолжительность                        : 1 ч. 22 м.
Битрейт                                  : 2142 Кбит/сек
Ширина                                   : 720 пикселей
Высота                                   : 400 пикселей
Соотношение сторон                       : 16:9
Частота кадров                           : 23,976 кадра/сек
Цветовое пространство                    : YUV
Субдискретизация насыщенности            : 4:2:0
Битовая глубина                          : 8 бит
Тип развёртки                            : Прогрессивная
Метод сжатия                             : С потерями
Бит/(Пиксели*Кадры)                      : 0.310
Размер потока                            : 1,23 Гбайт (84%)
Библиотека кодирования                   : XviD 65
Аудио
Идентификатор                            : 1
Формат                                   : AC-3
Формат/Информация                        : Audio Coding 3
Расширение режима                        : CM (complete main)
Параметр Endianness формата              : Big
Идентификатор кодека                     : 2000
Продолжительность                        : 1 ч. 22 м.
Вид битрейта                             : Постоянный
Битрейт                                  : 384 Кбит/сек
Каналы                                   : 6 каналов
Расположение каналов                     : Front: L C R, Side: L R, LFE
Частота                                  : 48,0 КГц
Битовая глубина                          : 16 бит
Метод сжатия                             : С потерями
Размер потока                            : 226 Мбайт (15%)
Выравнивание                             : Разделение по промежуткам
Продолжительность промежутка             : 42  мс. (1,00 видеокадр)
Время предзагрузки промежутка            : 500  мс.

Скриншоты

Показать сообщения:    

Текущее время: Сегодня 05:46

Часовой пояс: GMT



Вы не можете начинать темы
Вы не можете отвечать на сообщения
Вы не можете редактировать свои сообщения
Вы не можете удалять свои сообщения
Вы не можете голосовать в опросах
Вы не можете прикреплять файлы к сообщениям
Вы не можете скачивать файлы