Важное объявление!
У Нас Все раздачи мультитрекерные, при нуле пиров в релизах, можете смело вставать на закачку!
 
Автор Сообщение

HUNTER

Стаж:
4 года 8 месяцев
Сообщений:
62003

Репутация: 101

[+] [-]
Вне форума [Профиль] [ЛС]

Страна хороших деточек- -Страна: Россия
Жанр: детский, приключения, семейный
Год выпуска: 2013
Производство: «Новые люди»
Продолжительность: 01:18:45
Оригинальная аудиодорожка: русский
Cубтитры: нет-Режиссер: Ольга Каптур-В ролях:
Кира Флейшер, Вячеслав Манучаров, Наталья Селезнёва, Владимир Грамматиков, Андрей Кайков,
Ирина Пегова, Дмитрий Назаров, Евгений Воскресенский, Ивонн Каттерфельд, Дарья Андреева-Описание:
Это история непослушной девочки Саши, родители которой неосмотрительно пожелали себе на Новый год, чтобы у них вместо Саши появилась хорошая девочка. Не успели пробить праздничные куранты, как на пороге появилась чужая хорошая девочка, а Саша сказочным образом перенеслась в волшебную Страну хороших деточек на перевоспитание. В этой стране правит строгая королева и ее еще более строгий полномочный представитель, а жизнь подчинена строгим правилам. Чтобы вернуться домой к родителям, Саше придется пройти через невероятные приключения и преодолеть множество испытаний, в чем ей помогут верные друзья — кот Багет и пес Балбес.-Возраст: 0+-Качество: HDTV (1080i)
Формат: TS
Видео кодек: AVC
Аудио кодек: AC3

Видео: AVC, 1920 х 1080 (16:9), 25,000 кадр/сек, 8 637 Кбит/сек, 0.167 bit/pixel
Аудио: AC3, 48000 Hz, 448 Kbps, 6 каналов
-

MediaInfo

General
ID : 1 (0x1)
Complete name : D:\Раздачи\Страна хороших деточек HDTV (1080i)\Страна хороших деточек HDTV (1080i).ts
Format : MPEG-TS
File size : 5.26 GiB
Duration : 1h 18mn
Overall bit rate mode : Variable
Overall bit rate : 9 562 Kbps
Video
ID : 3551 (0xDDF)
Menu ID : 1 (0x1)
Format : AVC
Format/Info : Advanced Video Codec
Format profile : Main@L4
Format settings, CABAC : Yes
Format settings, ReFrames : 3 frames
Codec ID : 27
Duration : 1h 18mn
Bit rate : 8 637 Kbps
Width : 1 920 pixels
Height : 1 080 pixels
Display aspect ratio : 16:9
Frame rate : 25.000 fps
Standard : Component
Color space : YUV
Chroma subsampling : 4:2:0
Bit depth : 8 bits
Scan type : Interlaced
Scan type, store method : Separated fields
Scan order : Top Field First
Bits/(Pixel*Frame) : 0.167
Stream size : 4.75 GiB (90%)
Color range : Limited
Color primaries : BT.709
Transfer characteristics : BT.709
Matrix coefficients : BT.709
Audio
ID : 3553 (0xDE1)
Menu ID : 1 (0x1)
Format : AC-3
Format/Info : Audio Coding 3
Mode extension : CM (complete main)
Format settings, Endianness : Big
Codec ID : 6
Duration : 1h 18mn
Bit rate mode : Constant
Bit rate : 448 Kbps
Channel(s) : 6 channels
Channel positions : Front: L C R, Side: L R, LFE
Sampling rate : 48.0 KHz
Frame rate : 31.250 fps (1536 spf)
Compression mode : Lossy
Stream size : 252 MiB (5%)
Language : Russian

Скриншоты


-Раздаю до первых 5-ти скачавших, на раздачи не возвращаюсь...-

_________________
Показать сообщения:    

Текущее время: Сегодня 14:49

Часовой пояс: GMT



Вы не можете начинать темы
Вы не можете отвечать на сообщения
Вы не можете редактировать свои сообщения
Вы не можете удалять свои сообщения
Вы не можете голосовать в опросах
Вы не можете прикреплять файлы к сообщениям
Вы не можете скачивать файлы
Наши партнеры: интернет магазин Ивановского трикотажа textilla.ru