Важное объявление!
У Нас Все раздачи мультитрекерные, при нуле пиров в релизах, можете смело вставать на закачку!
 
Автор Сообщение

HUNTER

Стаж:
4 года 10 месяцев
Сообщений:
65557

Репутация: 101

[+] [-]
Вне форума [Профиль] [ЛС]

Страна троллей / Troll Tales---
Год выпуска: 2003
Страна: Германия Дания Великобритания
Жанр: Мультсериал, сказка
Продолжительность: 11:26:00 (26 серий по 26 минут)
Перевод: Профессиональный (полное дублирование)
Русские субтитры: есть
Оригинальная аудиодорожка: английский (в отдельной папке)
Режиссер: Карстен Килерих / Karsten Kiilerich--Описание:
В чудесной стране живут добрые тролли — Ловкач, Толстяк, Малявка и их друзья. Они веселятся, шалят и метают коров на досуге. Но им постоянно пытаются всячески насолить: Каменный Великан просыпается и забрасывает их камнями, эльфы охотятся за ними, коварные гномы роют каналы в их лесу и взрывают волшебный сыр. Но маленькие тролли не отчаиваются. Они найдут выход из любого трудного положения!-- --Исходник: | 8xDVD5 R5
Качество: DVDRip
Формат: AVI
Видео кодек: XviD
Аудио кодек: AC3
Видео: 672x512 (4:3), 25.000 fps, XviD MPEG-4 ~1650 kbps avg, 0.192 bit/pixel
Аудио 1: 48 kHz, AC3 Dolby Digital, 2 ch, 192 kbps, русский
Аудио 2: 48 kHz, AC3 Dolby Digital, 2 ch, 192 kbps, английский (в отдельной папке)
Формат субтитров: SoftSub (srt), субтитры всех серий находятся в отдельной папке, чтобы их просмотреть, следует просто поместить их в папку фильма.-- --

MediaInfo

Код: copyText_writeLink('this.parentNode.parentNode.nextSibling.nextSibling'); Общее
Полное имя : Strana.trolley.2003.D.DVDRip.avi
Формат : AVI
Формат/Информация : Audio Video Interleave
Размер файла : 345 Мбайт
Продолжительность : 26 м.
Общий поток : 1852 Кбит/сек
Программа кодирования : VirtualDubMod 1.5.10.3 (build 2550/release)
Библиотека кодирования : VirtualDubMod build 2550/release
Видео
Идентификатор : 0
Формат : MPEG-4 Visual
Профиль формата : Advanced Simple@L5
Параметр BVOP формата : 1
Параметр QPel формата : Нет
Параметр GMC формата : Без точки перехода
Параметр матрицы формата : Выборочная
Идентификатор кодека : XVID
Идентификатор кодека/Подсказка : XviD
Продолжительность : 26 м.
Битрейт : 1650 Кбит/сек
Ширина : 672 пикселя
Высота : 512 пикселей
Соотношение сторон : 4:3
Частота кадров : 25,000 кадров/сек
Цветовое пространство : YUV
Субдискретизация насыщенности : 4:2:0
Битовая глубина : 8 бит
Тип развёртки : Прогрессивная
Метод сжатия : С потерями
Бит/(Пиксели*Кадры) : 0.192
Размер потока : 307 Мбайт (89%)
Библиотека кодирования : XviD 65
Аудио
Идентификатор : 1
Формат : AC-3
Формат/Информация : Audio Coding 3
Расширение режима : CM (complete main)
Параметр Endianness формата : Big
Идентификатор кодека : 2000
Продолжительность : 26 м.
Вид битрейта : Постоянный
Битрейт : 192 Кбит/сек
Каналы : 2 канала
Расположение каналов : Front: L R
Частота : 48,0 КГц
Битовая глубина : 16 бит
Метод сжатия : С потерями
Размер потока : 35,7 Мбайт (10%)
Выравнивание : Разделение по промежуткам
Продолжительность промежутка : 40 мс. (1,00 видеокадр)
Время предзагрузки промежутка : 500 мс.

Доп. информация

Доп. информация: Запись сериала (без дополнительных звуковых дорожек) расчитана на 2хDVD5 - по 13 серий на диск. Если Вам не хочется качать оригинальный звук или субтитры, просто отожмите соответствующие галочки напротив папок субтитров или оригинального звука при загрузке торрент файла в клиент.
Исходный звук усилен и понижен битрейт, что никак не сказалось на его качестве, недаром стандартом двухканального звука DVD является именно 192 кбпс.

Постер

--
Пожалуйста, оставайтесь на раздаче как можно дольше--

_________________
Показать сообщения:    

Текущее время: Сегодня 03:27

Часовой пояс: GMT



Вы не можете начинать темы
Вы не можете отвечать на сообщения
Вы не можете редактировать свои сообщения
Вы не можете удалять свои сообщения
Вы не можете голосовать в опросах
Вы не можете прикреплять файлы к сообщениям
Вы не можете скачивать файлы