Ивановский Торрент трекер
Яндекс.Погода
 

[Цитировать]
HUNTER

Страна Банд: Город Гангстеров / Gangland: Gangster City
Год выпуска: 2007
Страна: США
Жанр: Документальный, криминальный
Продолжительность: 00:44:32
Перевод: Одноголосый закадровый
Русские субтитры: нет
Режиссер: History Channel
Описание: В 1992 году семилетний мальчик по имени Дэнтрел Дэвис был застрелен снайпером банды Гангстерские Апостолы. Дэнтрел стал третьим по счету ребенком, который был застрелен в печально известном жилом комплексе Кабрини-Грин за последние семь месяцев. Смерть этого мальчика дала начало полномасштабной операции правительства по зачистке неблагополучных районов от банд.
Доп. информация:
Перевод и озвучивание: Gopstarrr
Спонсор перевода: (Ubica)
Сэмпл: http://multi-up.com/929514
качество: SATRip
формат: AVI
Видео: DivX 5, 624x352, 16:9, 781kbps, 29.97fps
Аудио: MPEG Audio Layer 3, 192kbps, 44100Hz, stereo, 2 ch, Gopstarrr

MediaInfo

General
Format : AVI
Format/Info : Audio Video Interleave
File size : 314 MiB
Duration : 44mn 32s
Overall bit rate : 985 Kbps
Video
ID : 0
Format : MPEG-4 Visual
Format settings, BVOP : Yes
Format settings, QPel : No
Format settings, GMC : No warppoints
Format settings, Matrix : Default (H.263)
Codec ID : DX50
Codec ID/Hint : DivX 5
Duration : 44mn 32s
Bit rate : 781 Kbps
Width : 624 pixels
Height : 352 pixels
Display aspect ratio : 16:9
Frame rate : 29.970 fps
Color space : YUV
Chroma subsampling : 4:2:0
Bit depth : 8 bits
Scan type : Progressive
Compression mode : Lossy
Bits/(Pixel*Frame) : 0.119
Stream size : 249 MiB (79%)
Writing library : DivX 6.8.5 (UTC 2009-08-20)
Audio
ID : 1
Format : MPEG Audio
Format version : Version 1
Format profile : Layer 3
Mode : Joint stereo
Codec ID : 55
Codec ID/Hint : MP3
Duration : 44mn 32s
Bit rate mode : Constant
Bit rate : 192 Kbps
Channel(s) : 2 channels
Sampling rate : 44.1 KHz
Compression mode : Lossy
Stream size : 61.2 MiB (19%)
Alignment : Split accross interleaves
Interleave, duration : 33 ms (1.00 video frame)
Interleave, preload duration : 500 ms

Скриншоты

Показать сообщения:    

Текущее время: 23-Окт 21:43

Часовой пояс: UTC - 1


Вы не можете начинать темы
Вы не можете отвечать на сообщения
Вы не можете редактировать свои сообщения
Вы не можете удалять свои сообщения
Вы не можете голосовать в опросах
Вы не можете прикреплять файлы к сообщениям
Вы не можете скачивать файлы

!ВНИМАНИЕ!
Сайт не предоставляет электронные версии произведений, а занимается лишь коллекционированием и каталогизацией ссылок, присылаемых и публикуемых на форуме нашими читателями. Если вы являетесь правообладателем какого-либо представленного материала и не желаете, чтобы ссылка на него находилась в нашем каталоге, свяжитесь с нами, и мы незамедлительно удалим ее. Файлы для обмена на трекере предоставлены пользователями сайта, и администрация не несет ответственности за их содержание. Просьба не заливать файлы, защищенные авторскими правами, а также файлы нелегального содержания!